Братва из джунглей / Delhi Safari (Никхил Адвани / Nikhil Advani) [2012, мультфильм, DVDRip] Dub

Ответить на тему
 
Автор Сообщение

user ®

Стаж: 11 лет

Сообщений: 15145

Пост Пост: #1 от 07-Ноя-2013 21:50

[Цитировать]

Братва из джунглей / Delhi Safari- Страна: Индия
Жанр: мультфильм
Продолжительность: 01:32:37
Год выпуска: 2012
Перевод: Профессиональный (дублированный)
Субтитры: нет
Режиссёр: Никхил Адвани / Nikhil Advani
В ролях: Говинда, Акшай Кханна, Урмила Матондкар, Боман Ирани, Свини Кхера, Прем Чопра, Саурабх Шукла, Санджай Мишра, Дипак Добриял, Гириш Дхамиджа.
Описание: Животные — обитатели национального парка возле Бомбея — встречают яркое солнечное утро под пение птиц. И вдруг идиллическую картинку дикой природы нарушает страшный грохот. Это, круша все на своем пути, джунгли атакует человек на бульдозере. На месте прекрасной рощи люди водружают табличку: здесь идет строительство жилого комплекса.
Смертельно напуганные звери ночью собираются на совет. Юный леопард Юви горячо убеждает взрослых не бросать свои жилища. «Горячая голова» воин-обезьяна, Бахранжи, готов объявить смертельную войну незваным гостям, но Гуру в области конфликтологии, медведь Багга предлагает договориться с людьми по-хорошему. Одомашненный говорящий попугай Алекс решает присоединиться к друзьям, чтобы выступить переводчиком.
Разношерстная компания пускается в долгое путешествие в столицу. Через горы и реки, на поездах и грузовиках, чтобы найти Главного Начальника и передать ему свое прошение. По дороге выясняется, что не только их дома, но и жилища тысяч других животных находятся в опасности. В финале захватывающего приключения различные животные становятся друзьями, поскольку их объединяет борьба за общий ДОМ.
Автор рипа: avproh
Качество: DVDRip (исходник DVD5)
Формат: AVI | Sample
Видео: 720x304 (2.35:1), 25.000 fps, XviD 65 ~ 987 kbps avg, 0.18 bit/pixel
Аудио: 48 kHz, MPEG Layer 3, 2 ch, ~128.00 kbps avg

Скриншоты

Медиаинфо

Format : AVIFormat/Info : Audio Video InterleaveFile size : 745 MiBDuration : 1h 32mnOverall bit rate : 1 125 KbpsWriting application : VirtualDubMod 1.5.10.3 | (build 2550/release)Writing library : VirtualDubMod build 2550/release
VideoID : 0Format : MPEG-4 VisualFormat profile : Advanced Simple@L5Format settings, BVOP : YesFormat settings, QPel : NoFormat settings, GMC : No warppointsFormat settings, Matrix : CustomCodec ID : XVIDCodec ID/Hint : XviDDuration : 1h 32mnBit rate : 987 KbpsWidth : 720 pixelsHeight : 304 pixelsDisplay aspect ratio : 2.35:1Frame rate : 25.000 fpsColor space : YUVChroma subsampling : 4:2:0Bit depth : 8 bitsScan type : ProgressiveBits/(Pixel*Frame) : 0.180Stream size : 654 MiB (88%)Writing library : XviD 65
AudioID : 1Format : MPEG AudioFormat version : Version 1Format profile : Layer 3Codec ID : 55Codec ID/Hint : MP3Duration : 1h 32mnBit rate mode : ConstantBit rate : 128 KbpsChannel(s) : 2 channelsSampling rate : 48.0 KHzStream size : 84.8 MiB (11%)Alignment : Aligned on interleavesInterleave, duration : 40 ms (1.00 video frame)Interleave, preload duration : 504 msWriting library : LAME3.99.1
Скачать

Скачать торрент! Братва из джунглей / Delhi Safari (Никхил Адвани / Nikhil Advani) [2012, мультфильм, DVDRip] Dub

Как скачивать? · Что такое торрент? · Рейтинг и ограничения

Сайт не распространяет и не хранит электронные версии произведений, а лишь предоставляет доступ к создаваемому пользователями каталогу ссылок на торрент-файлы, которые содержат только списки хеш-сумм

[Профиль] [ЛС]
Показать сообщения:    
Ответить на тему

Текущее время: Сегодня 18:51

Часовой пояс: GMT + 4



Вы не можете начинать темы
Вы не можете отвечать на сообщения
Вы не можете редактировать свои сообщения
Вы не можете удалять свои сообщения
Вы не можете голосовать в опросах
Вы не можете прикреплять файлы к сообщениям
Вы не можете скачивать файлы