День матери / Mother\'s Day (Даррен Линн Боусман / Darren Lynn Bousman) [2010, США, ужасы, триллер, драма, криминал, BDRip 720p] MVO + original eng + subs (rus, eng)

Ответить на тему
 
Автор Сообщение

user ®

Стаж: 7 лет 7 месяцев

Сообщений: 20008

Пост Пост: #1 от 07-Ноя-2013 21:50

[Цитировать]

День матери / Mother's Day
Страна: США
Жанр: ужасы, триллер, драма, криминал
Год выпуска: 2010
Продолжительность: 01:52:14
Перевод: Профессиональный (многоголосый закадровый) [Лицензия]
Оригинальная аудиодорожка: английский
Режиссер: Даррен Линн Боусман / Darren Lynn Bousman
В ролях: Ребекка Де Морнэй, Джейми Кинг, Патрик Флюгер, Уоррен Коул, Дебора Энн Уолл, Бриана Эвиган, Шон Эшмор, Фрэнк Грилло, Лиза Маркос, Мэтью О’Лири
Описание: Трое братьев-налётчиков, один из которых ранен в перестрелке, пытаясь уйти от преследования, скрываются в доме своего детства. Они не подозревают, что их дом уже два месяца как принадлежит новым хозяевам. Начинается жестокое противостояние, раскрывающее тёмные тайны каждой стороны…

Сэмпл: http://multi-up.com/920700
Тип релиза: BDRip 720p
Контейнер: MKV
Видео: 1280x534, 23.976fps, x264, 4188 kbps
Аудио: (RUS) AC-3 2.0, 48 kHz, 16 bits, 448 kbps
Аудио: (ENG) DTS 5.1, 48 kHz, 16 bits, 1509 kbps
Cубтитры: русские, английские

MediaInfo

Общее
Уникальный идентификатор : 191601053219249906163575917912900372354 (0x902505448A98647C96E6151922220782)
Полное имя : Mother's.Day.2010.P.Rus.Eng.BDRip.720p.mkv
Формат : Matroska
Версия формата : Version 2
Размер файла : 4,82 Гбайт
Продолжительность : 1 ч. 52 м.
Общий поток : 6130 Кбит/сек
Дата кодирования : UTC 2013-11-06 11:34:32
Программа кодирования : mkvmerge v6.5.0 ('Isn't she lovely') built on Oct 20 2013 12:50:05
Библиотека кодирования : libebml v1.3.0 + libmatroska v1.4.1
Видео
Идентификатор : 1
Формат : AVC
Формат/Информация : Advanced Video Codec
Профиль формата : High@L3.1
Параметр CABAC формата : Да
Параметр ReFrames формата : 4 кадра
Идентификатор кодека : V_MPEG4/ISO/AVC
Продолжительность : 1 ч. 52 м.
Битрейт : 4188 Кбит/сек
Ширина : 1280 пикселей
Высота : 534 пикселя
Соотношение сторон : 2,40:1
Соотношение сторон в оригинале : 2,40:1
Режим частоты кадров : Постоянный
Частота кадров : 23,976 кадра/сек
Цветовое пространство : YUV
Субдискретизация насыщенности : 4:2:0
Битовая глубина : 8 бит
Тип развёртки : Прогрессивная
Бит/(Пиксели*Кадры) : 0.256
Размер потока : 3,18 Гбайт (66%)
Библиотека кодирования : x264 core 133 r2334 a3ac64b
Настройки программы : cabac=1 / ref=3 / deblock=1:-1:-1 / analyse=0x3:0x113 / me=umh / subme=10 / psy=1 / psy_rd=1.00:0.15 / mixed_ref=1 / me_range=24 / chroma_me=1 / trellis=2 / 8x8dct=1 / cqm=0 / deadzone=21,11 / fast_pskip=1 / chroma_qp_offset=-3 / threads=1 / lookahead_threads=1 / sliced_threads=0 / nr=0 / decimate=1 / interlaced=0 / bluray_compat=0 / constrained_intra=0 / bframes=6 / b_pyramid=2 / b_adapt=1 / b_bias=0 / direct=1 / weightb=1 / open_gop=0 / weightp=2 / keyint=240 / keyint_min=23 / scenecut=40 / intra_refresh=0 / rc_lookahead=40 / rc=2pass / mbtree=1 / bitrate=4188 / ratetol=1.0 / qcomp=0.60 / qpmin=0 / qpmax=69 / qpstep=4 / cplxblur=20.0 / qblur=0.5 / ip_ratio=1.40 / aq=1:1.00
Язык : English
Default : Да
Forced : Нет
Аудио #1
Идентификатор : 2
Формат : AC-3
Формат/Информация : Audio Coding 3
Расширение режима : CM (complete main)
Параметр Endianness формата : Big
Идентификатор кодека : A_AC3
Продолжительность : 1 ч. 52 м.
Вид битрейта : Постоянный
Битрейт : 448 Кбит/сек
Каналы : 2 канала
Расположение каналов : Front: L R
Частота : 48,0 КГц
Битовая глубина : 16 бит
Метод сжатия : С потерями
Размер потока : 361 Мбайт (7%)
Язык : Russian
Default : Да
Forced : Нет
Аудио #2
Идентификатор : 3
Формат : DTS
Формат/Информация : Digital Theater Systems
Режим : 16
Параметр Endianness формата : Big
Идентификатор кодека : A_DTS
Продолжительность : 1 ч. 52 м.
Вид битрейта : Постоянный
Битрейт : 1509 Кбит/сек
Каналы : 6 каналов
Расположение каналов : Front: L C R, Side: L R, LFE
Частота : 48,0 КГц
Битовая глубина : 16 бит
Метод сжатия : С потерями
Размер потока : 1,19 Гбайт (25%)
Язык : English
Default : Нет
Forced : Нет
Текст #1
Идентификатор : 4
Формат : UTF-8
Идентификатор кодека : S_TEXT/UTF8
Идентификатор кодека/Информация : UTF-8 Plain Text
Язык : Russian
Default : Нет
Forced : Нет
Текст #2
Идентификатор : 5
Формат : UTF-8
Идентификатор кодека : S_TEXT/UTF8
Идентификатор кодека/Информация : UTF-8 Plain Text
Язык : English
Default : Нет
Forced : Нет
Меню
00:00:00.000 : en:Chapter 01
00:07:42.587 : en:Chapter 02
00:18:05.876 : en:Chapter 03
00:29:48.119 : en:Chapter 04
00:39:48.552 : en:Chapter 05
00:49:56.952 : en:Chapter 06
00:59:24.852 : en:Chapter 07
01:03:57.792 : en:Chapter 08
01:14:01.979 : en:Chapter 09
01:23:58.658 : en:Chapter 10
01:32:00.515 : en:Chapter 11
01:42:50.164 : en:Chapter 12
01:52:13.727 : en:Chapter 13

Скриншот с названием

Скриншоты

Скачать

Скачать торрент!

Как скачивать? · Что такое торрент? · Рейтинг и ограничения

Сайт не распространяет и не хранит электронные версии произведений, а лишь предоставляет доступ к создаваемому пользователями каталогу ссылок на торрент-файлы, которые содержат только списки хеш-сумм

[Профиль] [ЛС]
Показать сообщения:    
Ответить на тему

Текущее время: Сегодня 12:14

Часовой пояс: GMT + 4



Вы не можете начинать темы
Вы не можете отвечать на сообщения
Вы не можете редактировать свои сообщения
Вы не можете удалять свои сообщения
Вы не можете голосовать в опросах
Вы не можете прикреплять файлы к сообщениям
Вы не можете скачивать файлы