Пробуждая Мэдисон / Waking Madison (Кэтерин Брукс / Katherine Brooks) [2010, США, драма, BDRemux 1080p] MVO (СВ-Дубль) + Original (Eng) + Sub (Eng)

Ответить на тему
 
Автор Сообщение

user ®

Стаж: 7 лет 7 месяцев

Сообщений: 20008

Пост Пост: #1 от 07-Ноя-2013 21:50

[Цитировать]

Пробуждая Мэдисон / Waking Madison Страна: США
Студия: Annapurna Productions, Fixed Point Films
Жанр: драма
Год выпуска: 2010
Продолжительность: 01:29:02
Перевод: Профессиональный (многоголосый закадровый) СВ-Дубль
Cубтитры: английские (SDH)
Оригинальная аудиодорожка: английский
Режиссер: Кэтерин Брукс / Katherine Brooks
В ролях: Элизабет Шу, Имоджен Путс, Фрэнсис Конрой, Тэрин Мэннинг, Сара Ремер, Уилл Пэттон, Эрин Келли, Доминик ДюВерней, Венди Гленн, Джефф Галпин
Описание:
Женщина, страдающая от расщепления личности, пытается вновь склеить свою жизнь воедино.
- ||-Тип релиза: BDRemux 1080p (Waking.Madison.2010.DUAL.COMPLETE.BLURAY-iFPD)

Контейнер: MKV
Видео: AVC (x264), 1920x1080 (16:9) at 23,976 fps, ~13994 Кbps, 0.274 bpp
Аудио 1: AC3; 192 Kbps; CBR; 2 ch; 48 khz | MVO - СВ-Дубль |
Аудио 2: DTS HD-HRA; ~3018 Kbps; VBR; 6 ch; 48 khz; 16 bit [DTS Core: 5.1 / 48 kHz / 1509 kbps / 16-bit] | Английский |
Формат субтитров: softsub (SRT)

Скриншоты || x264 Info || MediaInfo || Notes

Аудио дорожка №1 записана мной с онлайн кинотеатра
Английские субтитры найдены в сети

MediaInfo

Общее
Уникальный идентификатор                 : 189851716572769658288432671164547501899 (0x8ED41C4FE4CB66E099E2F2F444288F4B)
Полное имя                               : Пробуждая Мэдисон.2010.P.1080p.BluRay.Remux.x264.mkv
Формат                                   : Matroska
Версия формата                           : Version 4 / Version 2
Размер файла                             : 10,7 Гбайт
Продолжительность                        : 1 ч. 29 м.
Режим общего битрейта                    : Переменный
Общий поток                              : 17,2 Мбит/сек
Название фильма                          : profile.php?mode=viewprofile&u=22488948
Дата кодирования                         : UTC 2013-10-25 11:58:15
Программа кодирования                    : mkvmerge v6.5.0 ('Isn't she lovely') built on Oct 20 2013 12:50:05
Библиотека кодирования                   : libebml v1.3.0 + libmatroska v1.4.1
Видео
Идентификатор                            : 1
Формат                                   : AVC
Формат/Информация                        : Advanced Video Codec
Профиль формата                          : High@L4.1
Параметр CABAC формата                   : Да
Параметр ReFrames формата                : 4 кадра
Идентификатор кодека                     : V_MPEG4/ISO/AVC
Продолжительность                        : 1 ч. 29 м.
Вид битрейта                             : Переменный
Битрейт                                  : 13,6 Мбит/сек
Максимальный битрейт                     : 30,0 Мбит/сек
Ширина                                   : 1920 пикселей
Высота                                   : 1080 пикселей
Соотношение сторон                       : 16:9
Режим частоты кадров                     : Постоянный
Частота кадров                           : 23,976 кадра/сек
Стандарт вещания                         : NTSC
Цветовое пространство                    : YUV
Субдискретизация насыщенности            : 4:2:0
Битовая глубина                          : 8 бит
Тип развёртки                            : Прогрессивная
Бит/(Пиксели*Кадры)                      : 0.274
Размер потока                            : 8,49 Гбайт (79%)
Заголовок                                : MPEG-4 AVC Video / 13994 kbps / 1080p / 23,976 fps / 16:9 / High Profile 4.1
Язык                                     : English
Default                                  : Да
Forced                                   : Нет
Основные цвета                           : BT.709
Характеристики трансфера                 : BT.709
Коэффициенты матрицы                     : BT.709
Аудио #1
Идентификатор                            : 2
Формат                                   : AC-3
Формат/Информация                        : Audio Coding 3
Расширение режима                        : CM (complete main)
Параметр Endianness формата              : Big
Идентификатор кодека                     : A_AC3
Продолжительность                        : 1 ч. 29 м.
Вид битрейта                             : Постоянный
Битрейт                                  : 192 Кбит/сек
Каналы                                   : 2 канала
Расположение каналов                     : Front: L R
Частота                                  : 48,0 КГц
Битовая глубина                          : 16 бит
Метод сжатия                             : С потерями
Размер потока                            : 122 Мбайт (1%)
Заголовок                                : P, MVO [СВ-Дубль]
Язык                                     : Russian
Default                                  : Да
Forced                                   : Нет
Аудио #2
Идентификатор                            : 3
Формат                                   : DTS
Формат/Информация                        : Digital Theater Systems
Профиль формата                          : HRA / Core
Режим                                    : 16
Параметр Endianness формата              : Big
Идентификатор кодека                     : A_DTS
Продолжительность                        : 1 ч. 29 м.
Вид битрейта                             : Постоянный
Битрейт                                  : 3018 Кбит/сек / 1509 Кбит/сек
Каналы                                   : 6 каналов
Расположение каналов                     : Front: L C R, Side: L R, LFE
Частота                                  : 48,0 КГц
Битовая глубина                          : 16 бит
Метод сжатия                             : С потерями
Размер потока                            : 1,88 Гбайт (18%)
Заголовок                                : DTS-HD High-Res Audio / 5.1 / 48 kHz / 3018 kbps / 16-bit (DTS Core: 5.1 / 48 kHz / 1509 kbps / 16-bit)
Язык                                     : English
Default                                  : Нет
Forced                                   : Нет
Текст
Идентификатор                            : 4
Формат                                   : UTF-8
Идентификатор кодека                     : S_TEXT/UTF8
Идентификатор кодека/Информация          : UTF-8 Plain Text
Заголовок                                : SDH
Язык                                     : English
Default                                  : Нет
Forced                                   : Нет
Меню
00:00:00.000                             : en:
00:00:55.096                             : en:
00:03:52.899                             : en:
00:09:03.209                             : en:
00:14:59.189                             : en:
00:21:22.781                             : en:
00:27:27.687                             : en:
00:34:16.137                             : en:
00:40:26.006                             : en:
00:48:01.169                             : en:
00:55:06.928                             : en:
01:04:08.845                             : en:
01:11:11.850                             : en:
01:16:19.116                             : en:
01:19:47.115                             : en:
01:23:42.517                             : en:
Скачать

Скачать торрент!

Как скачивать? · Что такое торрент? · Рейтинг и ограничения

Сайт не распространяет и не хранит электронные версии произведений, а лишь предоставляет доступ к создаваемому пользователями каталогу ссылок на торрент-файлы, которые содержат только списки хеш-сумм

[Профиль] [ЛС]
Показать сообщения:    
Ответить на тему

Текущее время: Сегодня 22:37

Часовой пояс: GMT + 4



Вы не можете начинать темы
Вы не можете отвечать на сообщения
Вы не можете редактировать свои сообщения
Вы не можете удалять свои сообщения
Вы не можете голосовать в опросах
Вы не можете прикреплять файлы к сообщениям
Вы не можете скачивать файлы