Беги, Милка, беги! / Bhaag Milkha Bhaag (Ракеш Омпракаш Мехра / Rakesh Omprakash Mehra) [2013, Индия, Драма, биография, история, спорт, HDRip] MVO

Ответить на тему
 
Автор Сообщение

user ®

Стаж: 12 лет

Сообщений: 15092

Пост Пост: #1 от 07-Ноя-2013 12:25

[Цитировать]

Беги, Милка, беги! / Bhaag Milkha Bhaag
Страна: Индия
Жанр: Драма, биография, история, спорт
Год выпуска: 2013
Продолжительность: 03:06:24
Перевод: Любительский (многоголосый закадровый) IndianCinemaGroup
Cубтитры: русские (вшитые, только на тексты песен)
Режиссер: Ракеш Омпракаш Мехра / Rakesh Omprakash Mehra
В ролях: Фархан Ахтар, Сонам Капур, Паван Мальхотра, Арт Малик, Джаптедж Сингх, Йоградж Сингх, Ребекка Бридс, Дивья Датта
Описание: Биографический фильм, основанный на истории жизни бывшего индийского спортсмена Милки Сингха. Золотой медалист в беге на 200 и 400 метров на Азиатских играх 1958 года, золотой медалист Игр Содружества независимой Индии, обладатель бронзовой медали на Олимпиаде в Риме в 1960 году — Милка Сингх продал свою биографию всего за одну рупию. В фильме затронуты разные стороны жизни Милки - его детство, первая любовь, упорный путь к спортивным победам.
Доп. информация: Исходник BDRip (1080p) (СПАСИБО! jasinpapa)
Перевод субтитров : Soniya (Спасибо!)
Озвучка: IndianCinemaGroup (Спасибо!)
Сэмпл: http://multi-up.com/920971
Качество видео: HDRip
Формат видео: AVI
Видео: XviD build 50, 688x288 (2.39:1), 24.000 fps, 988 kbps avg
Аудио: MPEG Layer 3, 48 kHz, 2/0 (L,R) ch, 128.00 kbps avg

MediaInfo

General
Complete name : D:\Begi.Milka.Begi.2013.HDRip-Dego.avi
Format : AVI
Format/Info : Audio Video Interleave
File size : 1.47 GiB
Duration : 3h 6mn
Overall bit rate : 1 126 Kbps
Writing application : VirtualDubMod 1.5.10.2 (build 2540/release)
Writing library : VirtualDubMod build 2540/release
Video
ID : 0
Format : MPEG-4 Visual
Format profile : AdvancedSimple@L5
Format settings, BVOP : Yes
Format settings, QPel : No
Format settings, GMC : No warppoints
Format settings, Matrix : Default (MPEG)
Codec ID : XVID
Codec ID/Hint : XviD
Duration : 3h 6mn
Bit rate : 988 Kbps
Width : 688 pixels
Height : 288 pixels
Display aspect ratio : 2.35
Frame rate : 24.000 fps
Resolution : 24 bits
Colorimetry : 4:2:0
Scan type : Progressive
Bits/(Pixel*Frame) : 0.208
Stream size : 1.29 GiB (88%)
Writing library : XviD 1.2.1 (UTC 2008-12-04)
Audio
ID : 1
Format : MPEG Audio
Format version : Version 1
Format profile : Layer 3
Codec ID : 55
Codec ID/Hint : MP3
Duration : 3h 6mn
Bit rate mode : Constant
Bit rate : 128 Kbps
Channel(s) : 2 channels
Sampling rate : 48.0 KHz
Resolution : 16 bits
Stream size : 171 MiB (11%)
Alignment : Aligned on interleaves
Interleave, duration : 42 ms (1.00 video frame)
Interleave, preload duration : 504 ms
Writing library : LAME3.98r
Encoding settings : -m s -V 4 -q 2 -lowpass 17 -b 128

Скриншот c названием фильма

Скриншоты

Скачать

Скачать торрент! Беги, Милка, беги! / Bhaag Milkha Bhaag (Ракеш Омпракаш Мехра / Rakesh Omprakash Mehra) [2013, Индия, Драма, биография, история, спорт, HDRip] MVO

Как скачивать? · Что такое торрент? · Рейтинг и ограничения

Сайт не распространяет и не хранит электронные версии произведений, а лишь предоставляет доступ к создаваемому пользователями каталогу ссылок на торрент-файлы, которые содержат только списки хеш-сумм

[Профиль] [ЛС]
Показать сообщения:    
Ответить на тему

Текущее время: Сегодня 12:52

Часовой пояс: GMT + 4



Вы не можете начинать темы
Вы не можете отвечать на сообщения
Вы не можете редактировать свои сообщения
Вы не можете удалять свои сообщения
Вы не можете голосовать в опросах
Вы не можете прикреплять файлы к сообщениям
Вы не можете скачивать файлы