Мерзлая земля / The Frozen Ground (Скотт Уокер / Scott Walker) [2013, США, триллер, криминал, биография, BDRip-AVC] Dub + Original (Eng) + Sub (Rus, Eng)

Ответить на тему
 
Автор Сообщение

user ®

Стаж: 7 лет 9 месяцев

Сообщений: 20008

Пост Пост: #1 от 07-Ноя-2013 12:25

[Цитировать]

Мерзлая земля / The Frozen Ground Страна: США
Жанр: триллер, криминал, биография
Год выпуска: 2013
Продолжительность: 1:45:05.257-Перевод: Профессиональный (дублированный)
Оригинальная аудиодорожка: английский
Cубтитры: английские, русские-Режиссер: Скотт Уокер / Scott Walker-В ролях-Николас Кейдж, Джон Кьюсак, Ванесса Энн Хадженс, Дин Норрис, Рада Митчелл, Джоди Лин О’Кифи, Кэтрин ЛаНаса, Фифти Сент, Джина Мантенья, Мэтт Джералд-Описание-Все были уверены, что Роберт Хансен — приличный семьянин, владелец пекарни и славный охотник. Никто не подозревал, что на самом деле он — безжалостный маньяк, который похитил и убил более двадцати женщин. И только 17-летней Синди Полсон удалось сбежать от убийцы. Она наводит на след маньяка полицейского, который начинает опасное расследование. Ему никто не верит: Хансен — слишком приличный человек для такого обвинения… Но упорный коп знает свое дело и должен дойти до конца…-Качество видео: BDRip
Исходное видео: Blu-Ray disk (RUS)-Контейнер: MKV-Видео: AVC, ~2900 kbps, 1152x480 (2,40:1), 23.976 fps
Аудио: AC-3, 448 kbps, Dolby Digital, 3/2 (L,C,R,l,r) + LFE ch, 48 KHz |Dub|
Аудио: AC-3, 448 kbps, Dolby Digital, 3/2 (L,C,R,l,r) + LFE ch, 48 KHz |Original|
Формат субтитров: softsub (SRT)
Главы: есть-

MediaInfo

х264

x264 [info]: frame I:1069 Avg QP:13.06 size: 78585
x264 [info]: frame P:36806 Avg QP:16.25 size: 27471
x264 [info]: frame B:113300 Avg QP:18.31 size: 10442
x264 [info]: consecutive B-frames: 3.6% 4.9% 13.6% 17.0% 15.7% 34.2% 4.8% 1.0% 3.2% 1.9%
x264 [info]: mb I I16..4: 19.1% 60.2% 20.7%
x264 [info]: mb P I16..4: 2.1% 9.6% 1.2% P16..4: 27.0% 31.9% 10.2% 0.0% 0.0% skip:18.0%
x264 [info]: mb B I16..4: 0.2% 1.2% 0.1% B16..8: 33.7% 19.9% 3.2% direct: 5.4% skip:36.4% L0:42.8% L1:45.9% BI:11.3%
x264 [info]: 8x8 transform intra:73.7% inter:60.4%
x264 [info]: direct mvs spatial:99.1% temporal:0.9%
x264 [info]: coded y,uvDC,uvAC intra: 75.8% 73.3% 58.6% inter: 28.0% 20.1% 4.7%
x264 [info]: i16 v,h,dc,p: 51% 13% 11% 24%
x264 [info]: i8 v,h,dc,ddl,ddr,vr,hd,vl,hu: 9% 9% 10% 9% 13% 13% 13% 12% 13%
x264 [info]: i4 v,h,dc,ddl,ddr,vr,hd,vl,hu: 10% 10% 11% 8% 14% 13% 12% 10% 12%
x264 [info]: i8c dc,h,v,p: 45% 25% 16% 14%
x264 [info]: Weighted P-Frames: Y:4.3% UV:1.7%
x264 [info]: ref P L0: 47.6% 7.9% 17.2% 6.7% 5.3% 3.6% 3.0% 1.7% 1.6% 1.3% 1.2% 1.0% 0.9% 0.9% 0.2% 0.0%
x264 [info]: ref B L0: 75.3% 11.0% 4.9% 2.4% 1.9% 1.3% 0.9% 0.6% 0.5% 0.5% 0.4% 0.2% 0.1%
x264 [info]: ref B L1: 93.0% 7.0%
x264 [info]: kb/s:2890.50
x264 [total]: encoded 151175 frames, 0.37 fps, 2890.49 kb/s
Формат : Matroska
Версия формата : Version 2
Размер файла : 2,78 Гбайт
Продолжительность : 1 ч. 45 м.
Общий поток : 3788 Кбит/сек
Название фильма : Мерзлая земля / The Frozen Ground
Дата кодирования : UTC 2013-11-06 16:45:33
Программа кодирования : mkvmerge v5.5.0 ('Healer') built on Apr 24 2012 23:47:03
Библиотека кодирования : libebml v1.2.3 + libmatroska v1.3.0
Видео
Идентификатор : 1
Формат : AVC
Формат/Информация : Advanced Video Codec
Профиль формата : High@L4.1
Параметр CABAC формата : Да
Параметр ReFrames формата : 14 кадров
Идентификатор кодека : V_MPEG4/ISO/AVC
Продолжительность : 1 ч. 45 м.
Битрейт : 2892 Кбит/сек
Ширина : 1152 пикселя
Высота : 480 пикселей
Соотношение сторон : 2,40:1
Частота кадров : 23,976 кадра/сек
Цветовое пространство : YUV
Субдискретизация насыщенности : 4:2:0
Битовая глубина : 8 бит
Тип развёртки : Прогрессивная
Бит/(Пиксели*Кадры) : 0.218
Размер потока : 2,07 Гбайт (74%)
Заголовок : Мерзлая земля
Библиотека кодирования : x264 core 130 r2273 b3065e6
Настройки программы : cabac=1 / ref=14 / deblock=1:-3:-2 / analyse=0x3:0x113 / me=umh / subme=11 / psy=1 / psy_rd=1.00:0.08 / mixed_ref=1 / me_range=64 / chroma_me=1 / trellis=2 / 8x8dct=1 / cqm=0 / deadzone=21,11 / fast_pskip=0 / chroma_qp_offset=-3 / threads=4 / lookahead_threads=1 / sliced_threads=0 / nr=0 / decimate=1 / interlaced=0 / bluray_compat=0 / constrained_intra=0 / bframes=9 / b_pyramid=2 / b_adapt=2 / b_bias=0 / direct=3 / weightb=1 / open_gop=0 / weightp=2 / keyint=250 / keyint_min=23 / scenecut=40 / intra_refresh=0 / rc_lookahead=50 / rc=2pass / mbtree=1 / bitrate=2892 / ratetol=1.0 / qcomp=0.60 / qpmin=0 / qpmax=69 / qpstep=4 / cplxblur=20.0 / qblur=0.5 / vbv_maxrate=50000 / vbv_bufsize=62500 / nal_hrd=none / ip_ratio=1.40 / aq=2:0.80
Язык : Russian
Default : Да
Forced : Нет
Аудио #1
Идентификатор : 2
Формат : AC-3
Формат/Информация : Audio Coding 3
Расширение режима : CM (complete main)
Параметр Endianness формата : Big
Идентификатор кодека : A_AC3
Продолжительность : 1 ч. 45 м.
Вид битрейта : Постоянный
Битрейт : 448 Кбит/сек
Каналы : 6 каналов
Расположение каналов : Front: L C R, Side: L R, LFE
Частота : 48,0 КГц
Битовая глубина : 16 бит
Метод сжатия : С потерями
Размер потока : 337 Мбайт (12%)
Заголовок : Dub
Язык : Russian
Default : Да
Forced : Нет
Аудио #2
Идентификатор : 3
Формат : AC-3
Формат/Информация : Audio Coding 3
Расширение режима : CM (complete main)
Параметр Endianness формата : Big
Идентификатор кодека : A_AC3
Продолжительность : 1 ч. 45 м.
Вид битрейта : Постоянный
Битрейт : 448 Кбит/сек
Каналы : 6 каналов
Расположение каналов : Front: L C R, Side: L R, LFE
Частота : 48,0 КГц
Битовая глубина : 16 бит
Метод сжатия : С потерями
Размер потока : 337 Мбайт (12%)
Заголовок : Original
Язык : English
Default : Нет
Forced : Нет
Текст #1
Идентификатор : 4
Формат : UTF-8
Идентификатор кодека : S_TEXT/UTF8
Идентификатор кодека/Информация : UTF-8 Plain Text
Язык : Russian
Default : Да
Forced : Нет
Текст #2
Идентификатор : 5
Формат : UTF-8
Идентификатор кодека : S_TEXT/UTF8
Идентификатор кодека/Информация : UTF-8 Plain Text
Язык : English
Default : Нет
Forced : Нет
Меню
00:00:00.000 : en:
00:04:21.636 : en:
00:10:21.412 : en:
00:14:38.335 : en:
00:19:29.918 : en:
00:26:25.417 : en:
00:31:41.649 : en:
00:37:38.923 : en:
00:43:48.000 : en:
00:49:55.492 : en:
01:01:04.869 : en:
01:10:57.419 : en:
01:16:48.478 : en:
01:22:06.004 : en:
01:25:10.939 : en:
01:33:49.248 : en:

Скриншоты

Скачать

Скачать торрент!

Как скачивать? · Что такое торрент? · Рейтинг и ограничения

Сайт не распространяет и не хранит электронные версии произведений, а лишь предоставляет доступ к создаваемому пользователями каталогу ссылок на торрент-файлы, которые содержат только списки хеш-сумм

[Профиль] [ЛС]
Показать сообщения:    
Ответить на тему

Текущее время: Сегодня 21:17

Часовой пояс: GMT + 4



Вы не можете начинать темы
Вы не можете отвечать на сообщения
Вы не можете редактировать свои сообщения
Вы не можете удалять свои сообщения
Вы не можете голосовать в опросах
Вы не можете прикреплять файлы к сообщениям
Вы не можете скачивать файлы