Сезон убийц / Killing Season (Марк Стивен Джонсон / Mark Steven Johnson) [2013, Бельгия, США, триллер, драма, боевик, BDRip] VO (den904)

Ответить на тему
 
Автор Сообщение

user ®

Стаж: 7 лет 7 месяцев

Сообщений: 20008

Пост Пост: #1 от 07-Ноя-2013 12:25

[Цитировать]

Сезон убийц / Killing Season Страна: Бельгия, США
Жанр: триллер, драма, боевик
Год выпуска: 2013
Продолжительность: 01:30:44
Перевод: Одноголосый закадровый den904
Cубтитры: нет
Оригинальная аудиодорожка: нет
Режиссер: Марк Стивен Джонсон / Mark Steven Johnson
В ролях: Джон Траволта, Роберт Де Ниро, Майло Вентимилья, Элизабет Олин, Диана Любенова, Стефан Штерев
Описание: История о ветеранах войны в Боснии — американце и сербе, которые, спустя много лет после событий в Европе, устраивают свою личную Третью мировую войну, пытаясь свести счеты.

Качество видео: BDRip [Рип с Killing Season 2013 1080p Blu-ray Remux AVC TrueHD 5.1 - KRaLiMaRKo]
Формат видео: AVI
Видео: 720x400 (1.80:1), 23.976 fps, XviD build 73 ~1930 kbps avg, 0.28 bit/pixel
Аудио: 48 kHz, AC3 Dolby Digital, 3/2 (L,C,R,l,r) + LFE ch, ~384 kbps

MediaInfo

Complete name : Killing.Season.2013.XviD.BDRip.VO-ed_rez.avi
Format : AVI
Format/Info : Audio Video Interleave
File size : 1.46 GiB
Duration : 1h 30mn
Overall bit rate : 2 324 Kbps
Movie name : Killing Season (2013)
Genre : Action | Drama | Thriller
Writing application : VirtualDubMod 1.5.10.3 (build 2550/release)
Original source form/Name : Movie
Copyright : ed_rez
Video
ID : 0
Format : MPEG-4 Visual
Format profile : Advanced Simple@L5
Format settings, BVOP : 1
Format settings, QPel : No
Format settings, GMC : No warppoints
Format settings, Matrix : Custom
Codec ID : XVID
Codec ID/Hint : XviD
Duration : 1h 30mn
Bit rate : 1 930 Kbps
Width : 720 pixels
Height : 400 pixels
Display aspect ratio : 16:9
Frame rate : 23.976 fps
Color space : YUV
Chroma subsampling : 4:2:0
Bit depth : 8 bits
Scan type : Progressive
Compression mode : Lossy
Bits/(Pixel*Frame) : 0.280
Stream size : 1.22 GiB (83%)
Writing library : XviD 73
Audio
ID : 1
Format : AC-3
Format/Info : Audio Coding 3
Mode extension : CM (complete main)
Format settings, Endianness : Big
Codec ID : 2000
Duration : 1h 30mn
Bit rate mode : Constant
Bit rate : 384 Kbps
Channel count : 6 channels
Channel positions : Front: L C R, Side: L R, LFE
Sampling rate : 48.0 KHz
Bit depth : 16 bits
Compression mode : Lossy
Stream size : 248 MiB (17%)
Alignment : Split accross interleaves
Interleave, duration : 42 ms (1.00 video frame)
Interleave, preload duration : 500 ms

Скриншоты


Скачать

Скачать торрент!

Как скачивать? · Что такое торрент? · Рейтинг и ограничения

Сайт не распространяет и не хранит электронные версии произведений, а лишь предоставляет доступ к создаваемому пользователями каталогу ссылок на торрент-файлы, которые содержат только списки хеш-сумм

[Профиль] [ЛС]
Показать сообщения:    
Ответить на тему

Текущее время: Сегодня 05:55

Часовой пояс: GMT + 4



Вы не можете начинать темы
Вы не можете отвечать на сообщения
Вы не можете редактировать свои сообщения
Вы не можете удалять свои сообщения
Вы не можете голосовать в опросах
Вы не можете прикреплять файлы к сообщениям
Вы не можете скачивать файлы