Дорога, дорога домой / The Way Way Back (Нат Факсон / Nat Faxon, Джим Рэш / Jim Rash) [2013, США, драма, комедия, BDRip-AVC] VO + Sub Rus + Original Eng

Ответить на тему
 
Автор Сообщение

user ®

Стаж: 7 лет 7 месяцев

Сообщений: 20008

Пост Пост: #1 от 07-Ноя-2013 12:25

[Цитировать]

Дорога, дорога домой / The Way Way Back
Страна: США
Жанр: драма, комедия
Год выпуска: 2013
Продолжительность: 01:42:36
Перевод: Одноголосый закадровый[Andi]
Cубтитры: русские
Оригинальная аудиодорожка: английский
Режиссер: Нат Факсон / Nat Faxon, Джим Рэш / Jim Rash
В ролях: Стив Карелл, Тони Коллетт, Эллисон Дженни, Анна-София Робб, Сэм Рокуэлл, Майя Рудольф, Лайам Джеймс, Роб Кордри, Аманда Пит, Ривер Агирр, Зои Левин, Нат Факсон
Описание: История подростка, который нашел в себе силы противостоять жестокому отчиму и снова обрел контакт с матерью. И все это благодаря дружбе, завязавшейся у героя однажды летом.


Сэмпл: http://multi-up.com/920927
Качество видео: BDRip-AVC
The.Way.Way.Back.2013.1080p.BluRay.AVC.DTS-HD.MA.5.1-PublicHD
Формат видео: MKV
Видео: h264,1024x554,Aspect ratio:37:20(1.85:1),fps 23.976,2125kbps
Аудио: AC3,48000Hz,384kbps,channel 6(5.1),RUS
Аудио 2: AC3,48000Hz,448kbps,channel 6(5.1),ENG
Формат субтитров: softsub (SRT)

MediaInfo

Video
ID : 1
Format : AVC
Format/Info : Advanced Video Codec
Format profile : High@L4.1
Format settings, CABAC : Yes
Format settings, ReFrames : 7 frames
Codec ID : V_MPEG4/ISO/AVC
Duration : 1h 43mn
Bit rate : 2 125 Kbps
Width : 1 024 pixels
Height : 554 pixels
Display aspect ratio : 1.85:1
Frame rate mode : Constant
Frame rate : 23.976 fps
Color space : YUV
Chroma subsampling : 4:2:0
Bit depth : 8 bits
Scan type : Progressive
Bits/(Pixel*Frame) : 0.156
Stream size : 1.49 GiB (70%)
Writing library : x264 core 138 r2358kMod 9e941d1
Encoding settings : cabac=1 / ref=7 / deblock=1:-3:-3 / analyse=0x3:0x113 / me=umh / subme=11 / psy=1 / fade_compensate=0.00 / psy_rd=1.00:0.00 / mixed_ref=1 / me_range=32 / chroma_me=1 / trellis=2 / 8x8dct=1 / cqm=0 / deadzone=21,11 / fast_pskip=1 / chroma_qp_offset=-2 / threads=6 / lookahead_threads=1 / sliced_threads=0 / nr=0 / decimate=0 / interlaced=0 / bluray_compat=0 / constrained_intra=0 / bframes=6 / b_pyramid=2 / b_adapt=2 / b_bias=0 / direct=3 / weightb=1 / open_gop=1 / weightp=2 / keyint=240 / keyint_min=23 / scenecut=40 / intra_refresh=0 / rc=2pass / mbtree=0 / bitrate=2125 / ratetol=1.0 / qcomp=0.60 / qpmin=0 / qpmax=69 / qpstep=51 / cplxblur=0.1 / qblur=0.1 / ip_ratio=1.40 / pb_ratio=1.30 / aq=2:1.00
Language : English
Default : Yes
Forced : No
Audio #1
ID : 2
Format : AC-3
Format/Info : Audio Coding 3
Mode extension : CM (complete main)
Format settings, Endianness : Big
Codec ID : A_AC3
Duration : 1h 43mn
Bit rate mode : Constant
Bit rate : 384 Kbps
Channel count : 6 channels
Channel positions : Front: L C R, Side: L R, LFE
Sampling rate : 48.0 KHz
Bit depth : 16 bits
Compression mode : Lossy
Stream size : 284 MiB (13%)
Language : Russian
Default : Yes
Forced : No
Audio #2
ID : 3
Format : AC-3
Format/Info : Audio Coding 3
Mode extension : CM (complete main)
Format settings, Endianness : Big
Codec ID : A_AC3
Duration : 1h 43mn
Bit rate mode : Constant
Bit rate : 448 Kbps
Channel count : 6 channels
Channel positions : Front: L C R, Side: L R, LFE
Sampling rate : 48.0 KHz
Bit depth : 16 bits
Compression mode : Lossy
Stream size : 332 MiB (15%)
Language : English
Default : No
Forced : No
Text
ID : 4
Format : UTF-8
Codec ID : S_TEXT/UTF8
Codec ID/Info : UTF-8 Plain Text
Language : Russian
Default : No
Forced : No
Menu
00:00:00.000 : :Chapter 01
00:03:38.218 : :Chapter 03
00:04:50.206 : :Chapter 05
00:09:56.470 : :Chapter 07
00:12:51.520 : :Chapter 09
00:15:47.363 : :Chapter 11
00:17:52.696 : :Chapter 13
00:20:10.959 : :Chapter 15
00:23:56.643 : :Chapter 17
00:27:51.836 : :Chapter 19
00:31:14.497 : :Chapter 21
00:34:02.081 : :Chapter 23
00:36:06.998 : :Chapter 25
00:38:39.400 : :Chapter 27
00:40:35.307 : :Chapter 29
00:43:44.330 : :Chapter 31
00:47:57.291 : :Chapter 33
00:49:34.846 : :Chapter 35
00:55:34.748 : :Chapter 37
00:59:23.142 : :Chapter 39
01:03:05.490 : :Chapter 41
01:07:39.680 : :Chapter 43
01:10:52.414 : :Chapter 45
01:13:41.708 : :Chapter 47
01:16:07.187 : :Chapter 49
01:21:03.066 : :Chapter 51
01:24:38.656 : :Chapter 53
01:27:52.642 : :Chapter 55
01:29:35.453 : :Chapter 57
01:31:55.426 : :Chapter 59
01:33:58.382 : :Chapter 61
01:35:03.322 : :Chapter 63
01:43:27.951 : :Chapter 64

Скриншоты


Скриншот c названием фильма

Скачать

Скачать торрент!

Как скачивать? · Что такое торрент? · Рейтинг и ограничения

Сайт не распространяет и не хранит электронные версии произведений, а лишь предоставляет доступ к создаваемому пользователями каталогу ссылок на торрент-файлы, которые содержат только списки хеш-сумм

[Профиль] [ЛС]
Показать сообщения:    
Ответить на тему

Текущее время: Сегодня 20:00

Часовой пояс: GMT + 4



Вы не можете начинать темы
Вы не можете отвечать на сообщения
Вы не можете редактировать свои сообщения
Вы не можете удалять свои сообщения
Вы не можете голосовать в опросах
Вы не можете прикреплять файлы к сообщениям
Вы не можете скачивать файлы