Ловушка для Золушки / Trap for Cinderella (Иэн Софтли / Iain Softley) [2013, Великобритания, триллер, драма, криминал, BDRip 720p] DVO (Zelesk и Анна Завразина) + Original Eng

Ответить на тему
 
Автор Сообщение

user ®

Стаж: 7 лет 7 месяцев

Сообщений: 20008

Пост Пост: #1 от 07-Ноя-2013 03:50

[Цитировать]

Ловушка для Золушки
Trap for Cinderella
--Страна: Великобритания
Жанр: триллер, драма, криминал
Год выпуска: 2013
Продолжительность: 01:39:58--Перевод: Любительский (двухголосый закадровый) Zelesk и Анна Завразина
Cубтитры: нет
Оригинальная аудиодорожка: английская--Режиссер: Иэн Софтли / Iain Softley--В ролях: Анайрин Барнард, Фрэнсис де ла Тур, Таппенс Мидлтон, Александра Роач, Керри Фокс, Стэнли Вебер, Алекс Дженнингс, Эрих Редман, Элизабет Хили, Тим Уоллерс--Описание: Молодая девушка, в результате травмы, полученной во время пожара, теряет память и ведет мучительные поиски себя.-- --Тип релиза: BDRip 720p (сохранены оригинальные чаптеры)
Контейнер: MKV
Видео: MPEG4 Video (H264) 1280x688 24fps 4747Kbps
Аудио: Dolby AC3 48000Hz stereo 192kbps (Ru)
Аудио 2: DTS 48000Hz 6ch 1509Kbps (En)--

MediaInfo

General
Unique ID                      : 229656061581428336852372820645803784720 (0xACC6260A0ED1BCBD9BAD93492CE0FA10)
Complete name                  : D:\TORRENTS\Trap.for.Cinderella.2013.L.BDRip.720p.mkv
Format                         : Matroska
Format version                 : Version 4 / Version 2
File size                      : 4.50 GiB
Duration                       : 1h 39mn
Overall bit rate               : 6 449 Kbps
Encoded date                   : UTC 2013-11-05 19:25:54
Writing application            : mkvmerge v6.1.0 ('Old Devil') built on Mar  4 2013 09:10:42
Writing library                : libebml v1.3.0 + libmatroska v1.4.0
Video
ID                             : 1
Format                         : AVC
Format/Info                    : Advanced Video Codec
Format profile                 : High@L4.1
Format settings, CABAC         : Yes
Format settings, ReFrames      : 5 frames
Codec ID                       : V_MPEG4/ISO/AVC
Duration                       : 1h 39mn
Bit rate                       : 4 747 Kbps
Width                          : 1 280 pixels
Height                         : 688 pixels
Display aspect ratio           : 1.85:1
Frame rate mode                : Constant
Frame rate                     : 24.000 fps
Color space                    : YUV
Chroma subsampling             : 4:2:0
Bit depth                      : 8 bits
Scan type                      : Progressive
Bits/(Pixel*Frame)             : 0.225
Stream size                    : 3.23 GiB (72%)
Writing library                : x264 core 138 r2358 9e941d1
Encoding settings              : cabac=1 / ref=5 / deblock=1:0:0 / analyse=0x3:0x133 / me=umh / subme=7 / psy=1 / psy_rd=1.00:0.00 / mixed_ref=1 / me_range=16 / chroma_me=1 / trellis=1 / 8x8dct=1 / cqm=0 / deadzone=21,11 / fast_pskip=0 / chroma_qp_offset=-2 / threads=12 / lookahead_threads=2 / sliced_threads=0 / nr=0 / decimate=1 / interlaced=0 / bluray_compat=0 / constrained_intra=0 / bframes=3 / b_pyramid=2 / b_adapt=2 / b_bias=0 / direct=3 / weightb=1 / open_gop=0 / weightp=2 / keyint=250 / keyint_min=24 / scenecut=40 / intra_refresh=0 / rc_lookahead=50 / rc=2pass / mbtree=1 / bitrate=4747 / ratetol=1.0 / qcomp=0.60 / qpmin=0 / qpmax=69 / qpstep=4 / cplxblur=20.0 / qblur=0.5 / ip_ratio=1.40 / aq=1:1.00
Language                       : English
Default                        : Yes
Forced                         : No
Audio #1
ID                             : 2
Format                         : AC-3
Format/Info                    : Audio Coding 3
Mode extension                 : CM (complete main)
Format settings, Endianness    : Big
Codec ID                       : A_AC3
Duration                       : 1h 39mn
Bit rate mode                  : Constant
Bit rate                       : 192 Kbps
Channel count                  : 2 channels
Channel positions              : Front: L R
Sampling rate                  : 48.0 KHz
Bit depth                      : 16 bits
Compression mode               : Lossy
Stream size                    : 137 MiB (3%)
Language                       : Russian
Default                        : Yes
Forced                         : No
Audio #2
ID                             : 3
Format                         : DTS
Format/Info                    : Digital Theater Systems
Mode                           : 16
Format settings, Endianness    : Big
Codec ID                       : A_DTS
Duration                       : 1h 39mn
Bit rate mode                  : Constant
Bit rate                       : 1 509 Kbps
Channel count                  : 6 channels
Channel positions              : Front: L C R, Side: L R, LFE
Sampling rate                  : 48.0 KHz
Bit depth                      : 24 bits
Compression mode               : Lossy
Stream size                    : 1.05 GiB (23%)
Language                       : English
Default                        : No
Forced                         : No
Menu
00:00:00.000                   : en:00:00:00.000
00:07:21.250                   : en:00:07:21.250
00:18:26.667                   : en:00:18:26.667
00:25:50.083                   : en:00:25:50.083
00:33:01.583                   : en:00:33:01.583
00:40:25.417                   : en:00:40:25.417
00:51:51.208                   : en:00:51:51.208
00:58:08.583                   : en:00:58:08.583
01:06:54.917                   : en:01:06:54.917
01:16:20.542                   : en:01:16:20.542
01:27:00.375                   : en:01:27:00.375
01:35:41.167                   : en:01:35:41.167

Скриншоты

-

-
-
Скачать

Скачать торрент!

Как скачивать? · Что такое торрент? · Рейтинг и ограничения

Сайт не распространяет и не хранит электронные версии произведений, а лишь предоставляет доступ к создаваемому пользователями каталогу ссылок на торрент-файлы, которые содержат только списки хеш-сумм

[Профиль] [ЛС]
Показать сообщения:    
Ответить на тему

Текущее время: Сегодня 14:14

Часовой пояс: GMT + 4



Вы не можете начинать темы
Вы не можете отвечать на сообщения
Вы не можете редактировать свои сообщения
Вы не можете удалять свои сообщения
Вы не можете голосовать в опросах
Вы не можете прикреплять файлы к сообщениям
Вы не можете скачивать файлы