Дорога, дорога домой / The Way Way Back (Нат Факсон / Nat Faxon, Джим Рэш / Jim Rash) [2013, США, драма, комедия, HDRip] VO

Ответить на тему
 
Автор Сообщение

user ®

Стаж: 7 лет 7 месяцев

Сообщений: 20008

Пост Пост: #1 от 07-Ноя-2013 03:50

[Цитировать]

Дорога, дорога домойThe Way Way Back«We've All Been There»- Страна: США
Жанр: драма, комедия
Год выпуска: 2013
Продолжительность: 01:42:36-Перевод: Одноголосый закадровый [Andi]
Субтитры: нет
Режиссер: Нат Факсон / Nat Faxon, Джим Рэш / Jim Rash
В ролях: Стив Карелл, Тони Коллетт, Эллисон Дженни, Анна-София Робб, Сэм Рокуэлл, Майя Рудольф, Лайам Джеймс, Роб Кордри, Аманда Пит, Ривер Агирр, Зои Левин, Нат Факсон-Описание: История подростка, который нашел в себе силы противостоять жестокому отчиму и снова обрел контакт с матерью. И все это благодаря дружбе, завязавшейся у героя однажды летом.-


MPAA: PG-13 - Детям до 13 лет просмотр не желателен-

Доп. Информация

Сценарий: Нат Факсон / Nat Faxon, Джим Рэш / Jim Rash
Продюсер: Том Райс / Tom Rice, Нат Факсон / Nat Faxon, Бен Нирн / Ben Nearn, Джордж Парра / George Parra, Гиги Притцкер / Gigi Pritzker
Оператор: Джон Бэйли / John Bailey
Композитор: Роб Симонсен / Rob Simonsen
Бюджет: $4 600 000
Сборы в США: $21 456 092
Сборы в мире: $23 148 198
Мировая премьера: 21 января 2013
-Качество: HDRip
Контейнер: AVI
Видео: 720x384 (1.88:1), 23.976 fps, XviD build 65 ~1617 kbps avg, 0.24 bit/pixel
Аудио: 48 kHz, AC3 Dolby Digital, 3/2 (L,C,R,l,r) + LFE ch, ~384 kbps-

Media Info

Общее
Полное имя : G:\Doroga.doroga.domoj.2013.L1.HDRip..avi
Формат : AVI
Формат/Информация : Audio Video Interleave
Размер файла : 1,45 Гбайт
Продолжительность : 1 ч. 43 м.
Общий поток : 2008 Кбит/сек
Программа кодирования : VirtualDubModRus 1.5.10.2 (build 2542/release)
Библиотека кодирования : VirtualDubMod build 2542/release
Видео
Идентификатор : 0
Формат : MPEG-4 Visual
Профиль формата : Advanced Simple@L5
Параметр BVOP формата : 1
Параметр QPel формата : Нет
Параметр GMC формата : Без точки перехода
Параметр матрицы формата : Выборочная
Идентификатор кодека : XVID
Идентификатор кодека/Подсказка : XviD
Продолжительность : 1 ч. 43 м.
Битрейт : 1618 Кбит/сек
Ширина : 720 пикселей
Высота : 384 пикселя
Соотношение сторон : 1,85:1
Частота кадров : 23,976 кадра/сек
Цветовое пространство : YUV
Субдискретизация насыщенности : 4:2:0
Битовая глубина : 8 бит
Тип развёртки : Прогрессивная
Метод сжатия : С потерями
Бит/(Пиксели*Кадры) : 0.244
Размер потока : 1,17 Гбайт (81%)
Библиотека кодирования : XviD 65
Аудио
Идентификатор : 1
Формат : AC-3
Формат/Информация : Audio Coding 3
Расширение режима : CM (complete main)
Параметр Endianness формата : Big
Идентификатор кодека : 2000
Продолжительность : 1 ч. 42 м.
Вид битрейта : Постоянный
Битрейт : 384 Кбит/сек
Каналы : 6 каналов
Расположение каналов : Front: L C R, Side: L R, LFE
Частота : 48,0 КГц
Битовая глубина : 16 бит
Метод сжатия : С потерями
Размер потока : 282 Мбайт (19%)
Выравнивание : Разделение по промежуткам
Продолжительность промежутка : 42 мс. (1,01 видеокадр)
Время предзагрузки промежутка : 500 мс.

Скриншот с названием фильма

Скриншоты

Скачать

Скачать торрент!

Как скачивать? · Что такое торрент? · Рейтинг и ограничения

Сайт не распространяет и не хранит электронные версии произведений, а лишь предоставляет доступ к создаваемому пользователями каталогу ссылок на торрент-файлы, которые содержат только списки хеш-сумм

[Профиль] [ЛС]
Показать сообщения:    
Ответить на тему

Текущее время: Сегодня 07:07

Часовой пояс: GMT + 4



Вы не можете начинать темы
Вы не можете отвечать на сообщения
Вы не можете редактировать свои сообщения
Вы не можете удалять свои сообщения
Вы не можете голосовать в опросах
Вы не можете прикреплять файлы к сообщениям
Вы не можете скачивать файлы