Робот Джокс / Роботы бойцы / Robot Jox (Стюарт Гордон / Stuart Gordon) [1990, США, фантастика, боевик, HDTV 1080i] 2x DVO + 2x AVO (Дохалов, Иванов) + original (Eng) + sub (2xRus, Eng)

Ответить на тему
 
Автор Сообщение

user ®

Стаж: 7 лет 7 месяцев

Сообщений: 20008

Пост Пост: #1 от 07-Ноя-2013 00:40

[Цитировать]

Робот Джокс / Роботы бойцы / Robot Jox
Год выпуска: 1989
Страна: США
Жанр: фантастика, боевик
Продолжительность: 01:21:08
Перевод1: Профессиональный (двухголосый, закадровый)(НТВ+)
Перевод2: Любительский (двухголосый, закадровый)
Перевод3: Авторский (одноголосый, закадровый)(В.Дохалов)
Перевод4: Авторский (одноголосый, закадровый)(М.Иванов)
Субтитры: русские, русские - Nov@rtiS & Tiger, английские
Оригинальная аудиодорожка: английский
Режиссер: Стюарт Гордон / Stuart Gordon
В ролях: Гэри Грэм, Энн-Мари Джонсон, Пол Косло, Роберт Сэмпсон, Дэниэл Кэймикона, Хилари Мэйсон
Описание: Спустя полвека после окончания ядерной войны человечество нашло способ более цивилизованного разрешения конфликтов. Представители новообразованных государств выставляют на бой гигантских роботов, управляемых пилотами, сидящими внутри, – Роботов Джокс. Ахиллес (Гэри Грэм), выходец с Аляски, является последней надеждой американцев. Их основных соперников, русских, представляет многоопытный пилот по имени Александр (Пол Косло), на чьём счету несколько побед над его соотечественниками.

номинации:
• 1990 - Fantasporto - International Fantasy Film Award - Best Film
Качество: HDTV 1080i
Формат: MKV
Видео кодек: H.264
Аудио кодек: AC3
Видео: 1920 x 1080; 25 fps; 7 110 Kbps
Аудио1: Русский, AC3 2.0 192 Kbps 48,0 КГц(DVO NTV+)
Аудио2: Русский, AC3 2.0 192 Kbps 48,0 КГц(DVO)
Аудио3: Русский, AC3 2.0 192 Kbps 48,0 КГц(Dokhalov)
Аудио4: Русский, AC3 2.0 192 Kbps 48,0 КГц(Ivanov)
Аудио5: English, AC3 2.0 384 Kbps 48,0 КГц(Original)
Субтитры: SoftSub (SRT)

MediaInfo

D:\HDFILMS\Robot.Jox.1989.HDTV.1080i.4xRus.Eng.mkv
General
Unique ID : 230947557193380342585550951711597953943 (0xADBEE1B06B1DBEA4B25C3A3BB3748397)
Complete name : D:\HDFILMS\Robot.Jox.1989.HDTV.1080i.4xRus.Eng.mkv
Format : Matroska
File size : 4.78 GiB
Duration : 1h 21mn
Overall bit rate : 8 430 Kbps
Movie name : Robot Jox
Encoded date : UTC 2013-11-05 16:51:06
Writing application : mkvmerge v6.2.0 ('Promised Land') built on Apr 28 2013 12:22:01
Writing library : libebml v1.3.0 + libmatroska v1.4.0
Video #1
ID : 1
Format : AVC
Format/Info : Advanced Video Codec
Format profile : Main@L4.0
Format settings, CABAC : Yes
Format settings, ReFrames : 4 frames
Codec ID : V_MPEG4/ISO/AVC
Duration : 1h 21mn
Bit rate : 7 110 Kbps
Width : 1 920 pixels
Height : 1 080 pixels
Display aspect ratio : 16:9
Frame rate : 50.000 fps
Original frame rate : 25.000 fps
Color space : YUV
Chroma subsampling : 4:2:0
Bit depth : 8 bits
Scan type : Interlaced
Scan order : Top Field First
Bits/(Pixel*Frame) : 0.069
Stream size : 4.03 GiB (84%)
Title : Robot Jox 1989 1080p HDTV H.264 DD2.0
Color primaries : BT.709-5, BT.1361, IEC 61966-2-4, SMPTE RP177
Transfer characteristics : BT.709-5, BT.1361
Matrix coefficients : BT.709-5, BT.1361, IEC 61966-2-4 709, SMPTE RP177
Audio #2
ID : 2
Format : AC-3
Format/Info : Audio Coding 3
Mode extension : CM (complete main)
Codec ID : A_AC3
Duration : 1h 21mn
Bit rate mode : Constant
Bit rate : 192 Kbps
Channel(s) : 2 channels
Channel positions : Front: L R
Sampling rate : 48.0 KHz
Bit depth : 16 bits
Compression mode : Lossy
Stream size : 111 MiB (2%)
Title : DVO NTV+ AC3 2.0 192 kbps
Language : Russian
Audio #3
ID : 3
Format : AC-3
Format/Info : Audio Coding 3
Mode extension : CM (complete main)
Codec ID : A_AC3
Duration : 1h 21mn
Bit rate mode : Constant
Bit rate : 192 Kbps
Channel(s) : 2 channels
Channel positions : Front: L R
Sampling rate : 48.0 KHz
Bit depth : 16 bits
Compression mode : Lossy
Stream size : 111 MiB (2%)
Title : DVO AC3 2.0 192 kbps
Language : Russian
Audio #4
ID : 4
Format : AC-3
Format/Info : Audio Coding 3
Mode extension : CM (complete main)
Codec ID : A_AC3
Duration : 1h 21mn
Bit rate mode : Constant
Bit rate : 192 Kbps
Channel(s) : 2 channels
Channel positions : Front: L R
Sampling rate : 48.0 KHz
Bit depth : 16 bits
Compression mode : Lossy
Stream size : 111 MiB (2%)
Title : Dokhalov AC3 2.0 192 kbps
Language : Russian
Audio #5
ID : 5
Format : AC-3
Format/Info : Audio Coding 3
Mode extension : CM (complete main)
Codec ID : A_AC3
Duration : 1h 21mn
Bit rate mode : Constant
Bit rate : 192 Kbps
Channel(s) : 2 channels
Channel positions : Front: L R
Sampling rate : 48.0 KHz
Bit depth : 16 bits
Compression mode : Lossy
Stream size : 111 MiB (2%)
Title : Ivanov AC3 2.0 192 kbps
Language : Russian
Audio #6
ID : 6
Format : AC-3
Format/Info : Audio Coding 3
Mode extension : CM (complete main)
Codec ID : A_AC3
Duration : 1h 21mn
Bit rate mode : Constant
Bit rate : 384 Kbps
Channel(s) : 2 channels
Channel positions : Front: L R
Sampling rate : 48.0 KHz
Bit depth : 16 bits
Compression mode : Lossy
Stream size : 223 MiB (5%)
Title : Original AC3 2.0 384 kbps
Language : English
Text #7
ID : 7
Format : UTF-8
Codec ID : S_TEXT/UTF8
Codec ID/Info : UTF-8 Plain Text
Language : Russian
Text #8
ID : 8
Format : UTF-8
Codec ID : S_TEXT/UTF8
Codec ID/Info : UTF-8 Plain Text
Title : Nov@rtiS & Tiger25
Language : Russian
Text #9
ID : 9
Format : UTF-8
Codec ID : S_TEXT/UTF8
Codec ID/Info : UTF-8 Plain Text
Language : English

Скриншоты

Скачать

Скачать торрент!

Как скачивать? · Что такое торрент? · Рейтинг и ограничения

Сайт не распространяет и не хранит электронные версии произведений, а лишь предоставляет доступ к создаваемому пользователями каталогу ссылок на торрент-файлы, которые содержат только списки хеш-сумм

[Профиль] [ЛС]
Показать сообщения:    
Ответить на тему

Текущее время: Сегодня 03:15

Часовой пояс: GMT + 4



Вы не можете начинать темы
Вы не можете отвечать на сообщения
Вы не можете редактировать свои сообщения
Вы не можете удалять свои сообщения
Вы не можете голосовать в опросах
Вы не можете прикреплять файлы к сообщениям
Вы не можете скачивать файлы