Завершить историю / Clear History (Грег Моттола / Greg Mottola) [2013, США, комедия, HDRip] MVO

Ответить на тему
 
Автор Сообщение

user ®

Стаж: 7 лет 7 месяцев

Сообщений: 20008

Пост Пост: #1 от 07-Ноя-2013 00:40

[Цитировать]

Завершить историюClear History«A story of wealth, fame, power... and this guy»- Страна: США
Жанр: комедия
Год выпуска: 2013
Продолжительность: 01:40:07-Перевод: Профессиональный (многоголосый, закадровый)
Субтитры: нет
Режиссер: Грег Моттола / Greg Mottola
В ролях: Ларри Дэвид, Билл Хейдер, Филип Бейкер Холл, Джон Хэмм, Кейт Хадсон, Майкл Китон, Дэнни МакБрайд, Ева Мендес, Эми Райан, Дж.Б. Смув, Эми Ландекер, Мэри Клуг-Описание: Опальный бывший директор по маркетингу намерен мстить своему бывшему боссу, заработавшему миллионы на компании, которая когда-то принадлежала ему.-

-

Доп. Информация

Сценарий: Ларри Дэвид / Larry David, Алек Берг / Alec Berg, Дэвид Мэндел / David Mandel, Джефф Шеффер / Jeff Schaffer
Продюсер: Ларри Дэвид / Larry David, Моника Левинсон / Monica Levinson, Алек Берг / Alec Berg, Дэвид Мэндел / David Mandel, Грег Моттола / Greg Mottola
Оператор: Джим Дено / Jim Denault
Композитор: Людовик Бурсе / Ludovic Bource
Мировая премьера: 10 августа 2013
-Качество: HDRip (Исходник BDRip 720p)
Контейнер: AVI
Видео: XviD, 640x352 (16:9), 836 kbps, 23,976 fps, 0,155 bpp
Аудио: MP3 / 2.0 / 48 kHz / 128 kbps /-

Media Info

General
Complete name : G:\Clear.History.2013.P.HDRip.700.avi
Format : AVI
Format/Info : Audio Video Interleave
File size : 697 MiB
Duration : 1h 40mn
Overall bit rate : 974 Kbps
Writing application : VirtualDubMod 1.5.10.3 | www.virtualdub-fr.org || (build 2550/release)
Writing library : VirtualDubMod build 2550/release
Video
ID : 0
Format : MPEG-4 Visual
Format profile : Advanced Simple@L5
Format settings, BVOP : 1
Format settings, QPel : No
Format settings, GMC : No warppoints
Format settings, Matrix : Custom
Codec ID : XVID
Codec ID/Hint : XviD
Duration : 1h 40mn
Bit rate : 836 Kbps
Width : 640 pixels
Height : 352 pixels
Display aspect ratio : 16:9
Frame rate : 23.976 fps
Color space : YUV
Chroma subsampling : 4:2:0
Bit depth : 8 bits
Scan type : Progressive
Compression mode : Lossy
Bits/(Pixel*Frame) : 0.155
Stream size : 599 MiB (86%)
Writing library : XviD 1.2.1 (UTC 2008-12-04)
Audio
ID : 1
Format : MPEG Audio
Format version : Version 1
Format profile : Layer 3
Mode : Joint stereo
Mode extension : MS Stereo
Codec ID : 55
Codec ID/Hint : MP3
Duration : 1h 40mn
Bit rate mode : Constant
Bit rate : 128 Kbps
Channel(s) : 2 channels
Sampling rate : 48.0 KHz
Compression mode : Lossy
Stream size : 91.7 MiB (13%)
Alignment : Aligned on interleaves
Interleave, duration : 42 ms (1.00 video frame)
Interleave, preload duration : 504 ms

Скриншот с названием фильма

Скриншоты

Скачать

Скачать торрент!

Как скачивать? · Что такое торрент? · Рейтинг и ограничения

Сайт не распространяет и не хранит электронные версии произведений, а лишь предоставляет доступ к создаваемому пользователями каталогу ссылок на торрент-файлы, которые содержат только списки хеш-сумм

[Профиль] [ЛС]
Показать сообщения:    
Ответить на тему

Текущее время: Сегодня 16:34

Часовой пояс: GMT + 4



Вы не можете начинать темы
Вы не можете отвечать на сообщения
Вы не можете редактировать свои сообщения
Вы не можете удалять свои сообщения
Вы не можете голосовать в опросах
Вы не можете прикреплять файлы к сообщениям
Вы не можете скачивать файлы