История о девочке, наступившей на хлеб (Алла Грачева) [1986 г., мультфильм, DVB]

Ответить на тему
 
Автор Сообщение

user ®

Стаж: 7 лет 7 месяцев

Сообщений: 20008

Пост Пост: #1 от 06-Ноя-2013 21:30

[Цитировать]

История о девочке, наступившей на хлеб
Жанр: мультфильм
Год выпуска: 1986
Продолжительность: 00:09:57
Режиссёр: Алла Грачева
Описание: мультфильм о том, как девочка Инга постоянно смотрелась в зеркало и даже собаку покормить не хотела. Не хотела она и со сверстниками играть. Прохожим она пускала в глаза солнечные зайчики, чтобы они упали. Злая была девочка. Попросила ее мама отнести бабушке свежеиспеченный хлеб. Та согласилась с условием, что ей разрешат надеть новые башмачки, и отправилась. Чтобы перейти через лужу, положила она на лужу хлеб и провалилась в болото. Попала девочка к злой болотной ведьме. А что было дальше, посмотрите сами ...
Доп. информация: по мотивам сказки Ганса Христиана Андерсена

Трансляция спутникового канала: "Карусель"
Качество видео: DVB
Формат видео: MPEG-PS
Видео: MPEG2 Video, 720x576, 25 fps, 3200 kbps
Аудио: MPEG Audio, 2 сh, 48 kHz, 192 kbps

MediaInfo

D:\История о девочке, которая наступила на хлеб. (1986)_DVB by SLuMeP.mpg
General
Complete name : D:\История о девочке, которая наступила на хлеб. (1986)_DVB by SLuMeP.mpg
Format : MPEG-PS
File size : 249 MiB
Duration : 9mn 57s
Overall bit rate mode : Variable
Overall bit rate : 3 492 Kbps
Video #224
ID : 224 (0xE0)
Format : MPEG Video
Format version : Version 2
Format profile : Main@Main
Format settings, BVOP : Yes
Format settings, Matrix : Custom
Duration : 9mn 57s
Bit rate mode : Variable
Bit rate : 3 231 Kbps
Maximum bit rate : 5 000 Kbps
Width : 720 pixels
Height : 576 pixels
Display aspect ratio : 4:3
Frame rate : 25.000 fps
Standard : PAL
Color space : YUV
Chroma subsampling : 4:2:0
Bit depth : 8 bits
Scan type : Interlaced
Scan order : Top Field First
Compression mode : Lossy
Bits/(Pixel*Frame) : 0.312
Stream size : 230 MiB (93%)
Audio #192
ID : 192 (0xC0)
Format : MPEG Audio
Format version : Version 1
Format profile : Layer 2
Duration : 9mn 57s
Bit rate mode : Constant
Bit rate : 192 Kbps
Channel(s) : 2 channels
Sampling rate : 48.0 KHz
Compression mode : Lossy
Stream size : 13.7 MiB (5%)

Скриншоты

Скачать

Скачать торрент!

Как скачивать? · Что такое торрент? · Рейтинг и ограничения

Сайт не распространяет и не хранит электронные версии произведений, а лишь предоставляет доступ к создаваемому пользователями каталогу ссылок на торрент-файлы, которые содержат только списки хеш-сумм

[Профиль] [ЛС]
Показать сообщения:    
Ответить на тему

Текущее время: Сегодня 21:24

Часовой пояс: GMT + 4



Вы не можете начинать темы
Вы не можете отвечать на сообщения
Вы не можете редактировать свои сообщения
Вы не можете удалять свои сообщения
Вы не можете голосовать в опросах
Вы не можете прикреплять файлы к сообщениям
Вы не можете скачивать файлы