Ритмы песен / Sargam (Кашинадхури Вишванатх / Kasinathuni Viswanath) [1979, Индия, Мелодрама, музыкальный, DVDRip] Dub

Ответить на тему
 
Автор Сообщение

user ®

Стаж: 12 лет

Сообщений: 15092

Пост Пост: #1 от 06-Ноя-2013 21:30

[Цитировать]

Ритмы песен / Sargam
Полная версия
Страна: Индия
Жанр: Мелодрама, музыкальный
Год выпуска: 1979
Продолжительность: 02:25:16
Перевод: Профессиональный (дублированный)
Cубтитры: нет
Оригинальная аудиодорожка: нет
Режиссер: Кашинадхури Вишванатх / Kasinathuni Viswanath
В ролях: Риши Капур, Джая Прада, Шашикала, Раджни Шарма, Шрирам Лагу, Аруна Ирани, Асрани, Шакти Капур, Дхирадж Кумар, Лила Мишра, Ума Кхосла, Ом Шивпури, Джанкидас, Кешто Мукхерджи, Виджай Арора, Камалдип, Трилок Капур, Джет Мохан, Рамдас, Бейби Димпл, Баббанлал Ядав, Юсуф, Раджу
Описание: Любовь и ненависть, благородство и низость, зло и добро тесно переплетаются в этой истории... Красивая и талантливая, но немая танцовщица Хема была настоящей Золушкой в доме своей мачехи. Чтобы обеспечить благополучное будущее своей родной дочери, эта женщина заставила Хему согласиться на замужество с двоеженцем, рассчитывая деньги, полагавшиеся по брачному контракту, забрать себе. Уличный певец и танцор Раджу не допустил этой нечистой сделки, а после смерти отца девушки старается найти ей достойного мужа. Доброта и верность Раджу покорили сердце Хемы, и она с радостью согласилась стать его женой.
Награды и номинации:
Фильм номинирован на Filmfare Awards (1979) в категориях:
Победитель:
Лучший музыкальный руководитель - Лаксмикант Пьярелал
Номинации:
Лучший фильм
Лучший актер - Риши Капур
Лучшая женская роль - Джая Прада
Лучший Комикс - Асрани
Лучший Автор текста - Ананд Бакши на песню "Dafliwale"
Большое спасибо veronika83 за DVD9
Рип, сведение и синхронизация звука: pca1962
Сэмпл: http://multi-up.com/920703

Качество видео: DVDRip
Формат видео: AVI
Видео: XviD, 640x480, 24.00 fps, 1699 kbps
Аудио: AC3, 48 kHz, 2.0 (stereo), 192 kbps (русский)

MediaInfo

=== Общие ===
Полное имя : Ritmy.pesen.1979.DVDRip.XviD.pca1962.avi
Формат : AVI
Описание формата : Audio Video Interleave
Размер файла : 1.93 Гб
Длительность : 2ч 25мин
Общий битрейт : 1 901 кбит/сек
Програмное обеспечение : VirtualDubModRus 1.5.10.2 (build 2542/release)
Кодирующая библиотека : VirtualDubMod build 2542/release
=== Видео ===
ID (Идентификатор) : 0
Формат : MPEG-4 Visual
Профиль формата : Advanced Simple@L5
Параметр 'BVOP' : 2
Параметр 'QPel' : Нет
Параметр 'GMC' : No warppoints
Параметр 'Matrix' : Default (MPEG)
Идентификатор кодека : XVID
Подпись кодека : XviD
Длительность : 2ч 25мин
Битрейт : 1699 кбит/сек
Ширина кадра : 640 пикселей
Высота кадра : 480 пикселей
Соотношение сторон : 4:3
Частота кадров : 24.000 кадров/сек
Цветовое пространство : YUV
Субдискретизация насыщенности : 4:2:0
Глубина (разрядность) : 8 bits
Тип развертки : Прогрессивная
Режим сжатия : С потерями
Бит/(пиксель*кадр) : 0.230
Размер потока : 1.72 Гб (89%)
Кодирующая библиотека : XviD 1.2.1 (UTC 2008-12-04)
=== Аудио ===
ID (Идентификатор) : 1
Формат : AC-3
Описание формата : Audio Coding 3
Mode extension : CM (complete main)
Идентификатор кодека : 2000
Длительность : 2ч 25мин
Тип битрейта : Постоянный
Битрейт : 192 кбит/сек
Канал(ы) : 2 каналов
Расположение каналов : Front: L R
Частота дискретизации : 48.0 кГц
Глубина (разрядность) : 16 bits
Режим сжатия : С потерями
Размер потока : 199 Мб (10%)
Расположение потока : Split accross interleaves
Период чередования : 42 мс (1.00 video frame)
Предварительная загрузка : 500 мс

Доп. информация

Русская звуковая дорожка 11 минут короче оригинала фильма. Поэтому будут встречаться небольшие фрагменты без дубляжа.

Скриншот c названием фильма

Скачать

Скачать торрент! Ритмы песен / Sargam (Кашинадхури Вишванатх / Kasinathuni Viswanath) [1979, Индия, Мелодрама, музыкальный, DVDRip] Dub

Как скачивать? · Что такое торрент? · Рейтинг и ограничения

Сайт не распространяет и не хранит электронные версии произведений, а лишь предоставляет доступ к создаваемому пользователями каталогу ссылок на торрент-файлы, которые содержат только списки хеш-сумм

[Профиль] [ЛС]
Показать сообщения:    
Ответить на тему

Текущее время: Сегодня 07:04

Часовой пояс: GMT + 4



Вы не можете начинать темы
Вы не можете отвечать на сообщения
Вы не можете редактировать свои сообщения
Вы не можете удалять свои сообщения
Вы не можете голосовать в опросах
Вы не можете прикреплять файлы к сообщениям
Вы не можете скачивать файлы