Война в доме / The War at Home (Эмилио Эстевез / Emilio Estevez) [1996, США, Драма, BDRip 1080p] DVO + AVO + Sub Rus, Eng + Original Eng

Ответить на тему
 
Автор Сообщение

user ®

Стаж: 7 лет 7 месяцев

Сообщений: 20008

Пост Пост: #1 от 06-Ноя-2013 21:30

[Цитировать]

Война в доме / The War at Home
Страна: США
Студия: Motion Picture Corporation of America (MPCA), Touchstone Pictures
Жанр: Драма
Год выпуска: 1996
Продолжительность: 02:03:14
Перевод 1: Профессиональный (двухголосый закадровый)
Перевод 2: Авторский (одноголосый закадровый)
Cубтитры: Русские, английские
Оригинальная аудиодорожка: английский
Режиссер: Эмилио Эстевез
В ролях: Эмилио Эстевез, Кэти Бэйтс, Мартин Шин, Кимберли Уильямс, Корин Немек, Энн Хирн, Карла Гуджино, Маркус Х. Нельсон, Майкл Уайзмен, Джена Краус, Чад Морган, Пенелопа Аллен, Джеффри Блейк, Рене Эстевез, Туан Трэн, Палома Эстевез, Эфрен Брионес мл., Тайлер Коун, Харви Л. Сайферс, Кристофер Далберг, Крис Дрюи, Рид Фрерихс, Энок Лоуренс, Джо Лоури, Джефф Д. Ричи, Октавио О. Санчез, Деррик Сандерс, Пол А. Уоткинс
Описание: Молодой ветеран войны во Вьетнаме возвращается в семью, но не может адаптироваться к мирной жизни и находится в состоянии тяжелейшего психологического кризиса. Его девушка ушла к другому, он в отчаянии и не находит взаимопонимания с родителями и сестрой, направляя на них свою озлобленность. Это не обычная семейная ссора - это вьетнамская война, на которую он отправился добровольцем по настоянию отца, пришла в его дом…

Сэмпл
Релиз группы: NovaLan
Тип релиза: BDRip 1080p
Контейнер: MKV
Видео: 1920x816, 23.976 fps, x264, 10.1 kbps
Аудио 1: (RUS): DD 2.0, 48 kHz, 192 kbps - Профессиональный двухголосый - НТВ+
Аудио 2: (RUS): DTS, 512 kb/s, 2.0, 48 kHz, 24 bits - Авторский одноголосый (Юрий Сербин)
Аудио 3: (ENG): DTS, 1510 kb/s, 2.0, 48 kHz, 24 bits
Формат субтитров: Русские, английские (UTF-8)

MediaInfo

Полное имя : E:\Раздачи_E\The.War.at.Home.1996.x264.BDRip.1080p.NovaLan.mkv
Формат : Matroska
Версия формата : Version 4 / Version 2
Размер файла : 10,6 Гбайт
Продолжительность : 2 ч. 3 м.
Общий поток : 12,3 Мбит/сек
Название фильма : The War at Home 1996 - NovaLan
Дата кодирования : UTC 2013-11-05 18:56:32
Программа кодирования : mkvmerge v6.5.0 ('Isn't she lovely') built on Oct 20 2013 12:50:05
Библиотека кодирования : libebml v1.3.0 + libmatroska v1.4.1
Видео
Идентификатор : 1
Формат : AVC
Формат/Информация : Advanced Video Codec
Профиль формата : High@L4.1
Параметр CABAC формата : Да
Параметр ReFrames формата : 4 кадра
Идентификатор кодека : V_MPEG4/ISO/AVC
Продолжительность : 2 ч. 3 м.
Битрейт : 10,1 Мбит/сек
Ширина : 1920 пикселей
Высота : 816 пикселей
Соотношение сторон : 2,35:1
Частота кадров : 23,976 кадра/сек
Цветовое пространство : YUV
Субдискретизация насыщенности : 4:2:0
Битовая глубина : 8 бит
Тип развёртки : Прогрессивная
Бит/(Пиксели*Кадры) : 0.269
Размер потока : 8,47 Гбайт (80%)
Заголовок : Sergei7721
Библиотека кодирования : x264 core 133 r2334 a3ac64b
Настройки программы : cabac=1 / ref=4 / deblock=1:-1:-1 / analyse=0x3:0x113 / me=umh / subme=10 / psy=1 / psy_rd=1.00:0.20 / mixed_ref=1 / me_range=32 / chroma_me=1 / trellis=2 / 8x8dct=1 / cqm=0 / deadzone=21,11 / fast_pskip=0 / chroma_qp_offset=-3 / threads=12 / lookahead_threads=1 / sliced_threads=0 / nr=0 / decimate=0 / interlaced=0 / bluray_compat=0 / constrained_intra=0 / bframes=6 / b_pyramid=2 / b_adapt=2 / b_bias=0 / direct=3 / weightb=1 / open_gop=0 / weightp=2 / keyint=240 / keyint_min=23 / scenecut=40 / intra_refresh=0 / rc_lookahead=40 / rc=2pass / mbtree=0 / bitrate=10087 / ratetol=1.0 / qcomp=0.60 / qpmin=0 / qpmax=69 / qpstep=4 / cplxblur=20.0 / qblur=0.5 / vbv_maxrate=50000 / vbv_bufsize=62500 / nal_hrd=none / ip_ratio=1.40 / pb_ratio=1.30 / aq=1:1.00
Язык : English
Default : Да
Forced : Нет
Аудио #1
Идентификатор : 2
Формат : AC-3
Формат/Информация : Audio Coding 3
Расширение режима : CM (complete main)
Параметр Endianness формата : Big
Идентификатор кодека : A_AC3
Продолжительность : 2 ч. 3 м.
Вид битрейта : Постоянный
Битрейт : 192 Кбит/сек
Каналы : 2 канала
Расположение каналов : Front: L R
Частота : 48,0 КГц
Битовая глубина : 16 бит
Метод сжатия : С потерями
Размер потока : 169 Мбайт (2%)
Язык : Russian
Default : Да
Forced : Нет
Аудио #2
Идентификатор : 3
Формат : DTS
Формат/Информация : Digital Theater Systems
Идентификатор кодека : A_DTS
Продолжительность : 2 ч. 3 м.
Вид битрейта : Постоянный
Битрейт : 512 Кбит/сек
Каналы : 2 канала
Расположение каналов : Front: L R
Частота : 48,0 КГц
Битовая глубина : 24 бит
Метод сжатия : С потерями
Размер потока : 451 Мбайт (4%)
Язык : Russian
Default : Нет
Forced : Нет
Аудио #3
Идентификатор : 4
Формат : DTS
Формат/Информация : Digital Theater Systems
Идентификатор кодека : A_DTS
Продолжительность : 2 ч. 3 м.
Вид битрейта : Постоянный
Битрейт : 1510 Кбит/сек
Каналы : 2 канала
Расположение каналов : Front: L R
Частота : 48,0 КГц
Битовая глубина : 24 бит
Метод сжатия : С потерями
Размер потока : 1,30 Гбайт (12%)
Язык : English
Default : Нет
Forced : Нет
Текст #1
Идентификатор : 5
Формат : UTF-8
Идентификатор кодека : S_TEXT/UTF8
Идентификатор кодека/Информация : UTF-8 Plain Text
Язык : Russian
Default : Да
Forced : Нет
Текст #2
Идентификатор : 6
Формат : UTF-8
Идентификатор кодека : S_TEXT/UTF8
Идентификатор кодека/Информация : UTF-8 Plain Text
Язык : English
Default : Нет
Forced : Нет
Меню
00:00:00.000 : en:00:00:00.000
00:07:02.422 : en:00:07:02.422
00:12:22.367 : en:00:12:22.367
00:22:34.979 : en:00:22:34.979
00:33:05.984 : en:00:33:05.984
00:41:23.481 : en:00:41:23.481
00:49:44.607 : en:00:49:44.607
01:02:13.730 : en:01:02:13.730
01:13:07.383 : en:01:13:07.383
01:18:40.341 : en:01:18:40.341
01:24:50.711 : en:01:24:50.711
01:28:55.956 : en:01:28:55.956
01:37:59.874 : en:01:37:59.874
01:49:32.566 : en:01:49:32.566
01:54:39.873 : en:01:54:39.873

Скриншоты

Скачать

Скачать торрент!

Как скачивать? · Что такое торрент? · Рейтинг и ограничения

Сайт не распространяет и не хранит электронные версии произведений, а лишь предоставляет доступ к создаваемому пользователями каталогу ссылок на торрент-файлы, которые содержат только списки хеш-сумм

[Профиль] [ЛС]
Показать сообщения:    
Ответить на тему

Текущее время: Сегодня 18:17

Часовой пояс: GMT + 4



Вы не можете начинать темы
Вы не можете отвечать на сообщения
Вы не можете редактировать свои сообщения
Вы не можете удалять свои сообщения
Вы не можете голосовать в опросах
Вы не можете прикреплять файлы к сообщениям
Вы не можете скачивать файлы