День матери / Mother\'s Day (Даррен Линн Боусман / Darren Lynn Bousman) [2010, США, ужасы, триллер, драма, криминал, BDRip 1080p] MVO + original eng + subs (rus, eng)

Ответить на тему
 
Автор Сообщение

user ®

Стаж: 7 лет 7 месяцев

Сообщений: 20008

Пост Пост: #1 от 06-Ноя-2013 21:30

[Цитировать]

День матери / Mother's Day
Страна: США
Жанр: ужасы, триллер, драма, криминал
Год выпуска: 2010
Продолжительность: 01:52:16
Перевод: Профессиональный (многоголосый закадровый) [Лицензия]
Оригинальная аудиодорожка: английский
Режиссер: Даррен Линн Боусман / Darren Lynn Bousman
В ролях: Ребекка Де Морнэй, Джейми Кинг, Патрик Флюгер, Уоррен Коул, Дебора Энн Уолл, Бриана Эвиган, Шон Эшмор, Фрэнк Грилло, Лиза Маркос, Мэтью О’Лири
Описание: Трое братьев-налётчиков, один из которых ранен в перестрелке, пытаясь уйти от преследования, скрываются в доме своего детства. Они не подозревают, что их дом уже два месяца как принадлежит новым хозяевам. Начинается жестокое противостояние, раскрывающее тёмные тайны каждой стороны…

Сэмпл: SendSpace
Тип релиза: BDRip 1080p
Контейнер: MKV
Видео: 1920x800, 23.976fps, x264, 8877 kbps
Аудио: (RUS) AC-3 2.0, 48 kHz, 16 bits, 448 kbps
Аудио: (ENG) DTS 5.1, 48 kHz, 24 bits, 1509 kbps
Cубтитры: русские, английские

Видеоряд от CtrlHD

RUNTiME.......: 112 min
SiZE..........: ~8.3 GB
ViDEO.CODEC...: x264
FRAMERATE.....: 23.976
BiTRATE.......: ~8.9 mbit
RESOLUTiON....: 1920x800
AUDiO.1.......: English DTS 5.1 - 1510 kbps
SUBTiTLES.....: -
CHAPTERS......: Yes
SOURCE........: Mother's Day 2010 1080p CAN Blu-ray AVC DTS-HD MA 5.1-EbP
ENCODER.......: CtrlHD (BoNo)
RELEASE DATE..: 5/11/2012
x264 [info]: frame I:1126 Avg QP:16.80 size:139557
x264 [info]: frame P:34100 Avg QP:19.92 size: 68939
x264 [info]: frame B:126271 Avg QP:20.61 size: 40954

MediaInfo

Общее
Уникальный идентификатор : 211694956119589617037740686415646576097 (0x9F42F72B718C7437B3B82559ECA64DE1)
Полное имя : Mother's.Day.2010.P.Rus.Eng.BDRip.1080p.mkv
Формат : Matroska
Версия формата : Version 2
Размер файла : 8,69 Гбайт
Продолжительность : 1 ч. 52 м.
Общий поток : 11,1 Мбит/сек
Дата кодирования : UTC 2013-11-06 05:02:28
Программа кодирования : mkvmerge v6.5.0 ('Isn't she lovely') built on Oct 20 2013 12:50:05
Библиотека кодирования : libebml v1.3.0 + libmatroska v1.4.1
Видео
Идентификатор : 1
Формат : AVC
Формат/Информация : Advanced Video Codec
Профиль формата : High@L4.1
Параметр CABAC формата : Да
Параметр ReFrames формата : 5 кадров
Идентификатор кодека : V_MPEG4/ISO/AVC
Продолжительность : 1 ч. 52 м.
Битрейт : 8877 Кбит/сек
Ширина : 1920 пикселей
Высота : 800 пикселей
Соотношение сторон : 2,40:1
Режим частоты кадров : Постоянный
Частота кадров : 23,976 кадра/сек
Цветовое пространство : YUV
Субдискретизация насыщенности : 4:2:0
Битовая глубина : 8 бит
Тип развёртки : Прогрессивная
Бит/(Пиксели*Кадры) : 0.241
Размер потока : 6,98 Гбайт (80%)
Библиотека кодирования : x264 core 124 r2197kMod 69a0443
Настройки программы : cabac=1 / ref=5 / deblock=1:-3:-3 / analyse=0x3:0x113 / me=umh / subme=11 / psy=1 / fade_compensate=0.00 / psy_rd=1.15:0.00 / mixed_ref=1 / me_range=16 / chroma_me=1 / trellis=2 / 8x8dct=1 / cqm=0 / deadzone=21,11 / fast_pskip=0 / chroma_qp_offset=-2 / threads=6 / sliced_threads=0 / nr=0 / decimate=0 / interlaced=0 / bluray_compat=0 / constrained_intra=0 / bframes=8 / b_pyramid=2 / b_adapt=2 / b_bias=0 / direct=3 / weightb=1 / open_gop=0 / weightp=2 / keyint=250 / keyint_min=23 / scenecut=40 / intra_refresh=0 / rc_lookahead=40 / rc=crf / mbtree=1 / crf=18.0000 / qcomp=0.70 / qpmin=0 / qpmax=69 / qpstep=4 / ip_ratio=1.30 / aq=1:0.60
Язык : English
Default : Да
Forced : Нет
Аудио #1
Идентификатор : 2
Формат : AC-3
Формат/Информация : Audio Coding 3
Расширение режима : CM (complete main)
Параметр Endianness формата : Big
Идентификатор кодека : A_AC3
Продолжительность : 1 ч. 52 м.
Вид битрейта : Постоянный
Битрейт : 448 Кбит/сек
Каналы : 2 канала
Расположение каналов : Front: L R
Частота : 48,0 КГц
Битовая глубина : 16 бит
Метод сжатия : С потерями
Размер потока : 361 Мбайт (4%)
Язык : Russian
Default : Да
Forced : Нет
Аудио #2
Идентификатор : 3
Формат : DTS
Формат/Информация : Digital Theater Systems
Режим : 16
Параметр Endianness формата : Big
Идентификатор кодека : A_DTS
Продолжительность : 1 ч. 52 м.
Вид битрейта : Постоянный
Битрейт : 1509 Кбит/сек
Каналы : 6 каналов
Расположение каналов : Front: L C R, Side: L R, LFE
Частота : 48,0 КГц
Битовая глубина : 24 бит
Метод сжатия : С потерями
Размер потока : 1,19 Гбайт (14%)
Язык : English
Default : Нет
Forced : Нет
Текст #1
Идентификатор : 4
Формат : UTF-8
Идентификатор кодека : S_TEXT/UTF8
Идентификатор кодека/Информация : UTF-8 Plain Text
Язык : Russian
Default : Нет
Forced : Нет
Текст #2
Идентификатор : 5
Формат : UTF-8
Идентификатор кодека : S_TEXT/UTF8
Идентификатор кодека/Информация : UTF-8 Plain Text
Язык : English
Default : Нет
Forced : Нет
Меню
00:00:00.000 : en:Chapter 1
00:02:29.274 : en:Chapter 2
00:07:15.143 : en:Chapter 3
00:13:23.177 : en:Chapter 4
00:18:06.919 : en:Chapter 5
00:22:12.748 : en:Chapter 6
00:29:49.162 : en:Chapter 7
00:33:28.381 : en:Chapter 8
00:39:49.596 : en:Chapter 9
00:44:30.793 : en:Chapter 10
00:49:19.540 : en:Chapter 11
00:55:57.271 : en:Chapter 12
01:02:04.346 : en:Chapter 13
01:07:05.271 : en:Chapter 14
01:14:16.494 : en:Chapter 15
01:19:50.244 : en:Chapter 16
01:24:42.995 : en:Chapter 17
01:30:49.277 : en:Chapter 18
01:36:03.883 : en:Chapter 19
01:40:36.614 : en:Chapter 20
01:47:19.350 : en:Chapter 21

Скриншот с названием

Скриншоты

Скачать

Скачать торрент!

Как скачивать? · Что такое торрент? · Рейтинг и ограничения

Сайт не распространяет и не хранит электронные версии произведений, а лишь предоставляет доступ к создаваемому пользователями каталогу ссылок на торрент-файлы, которые содержат только списки хеш-сумм

[Профиль] [ЛС]
Показать сообщения:    
Ответить на тему

Текущее время: Сегодня 00:03

Часовой пояс: GMT + 4



Вы не можете начинать темы
Вы не можете отвечать на сообщения
Вы не можете редактировать свои сообщения
Вы не можете удалять свои сообщения
Вы не можете голосовать в опросах
Вы не можете прикреплять файлы к сообщениям
Вы не можете скачивать файлы