Банановый Джо / Banana Joe (Стено / Steno) [1982, Италия, Германия (ФРГ), комедия, BDRip 720p] VO (Joe30) + Original Ita

Ответить на тему
 
Автор Сообщение

user ®

Стаж: 7 лет 7 месяцев

Сообщений: 20008

Пост Пост: #1 от 06-Ноя-2013 21:30

[Цитировать]

Банановый Джо / Banana Joe
Страна: Италия, Германия (ФРГ)
Жанр: комедия
Год выпуска: 1982
Продолжительность: 01:36:14
Перевод: Одноголосый закадровый Joe30
Cубтитры: нет
Оригинальная аудиодорожка: итальянский
Режиссер: Стено / Steno
В ролях: Бад Спенсер, Джанфранко Барра, Энцо Гаринеи, Гюнтер Филипп, Жизела Хан, Нелло Паццафини, Сальваторе Базиле, Эди Бьяджетти, Джованни Чанфрилья, Бенито Пасифико, Серджио Смакки, Никола Ди Джиоия, Джеймс Ордонез
Описание: Небольшой островок южной Америки знаменит своими бананами. Раз в неделю на лодке в город доставляет бананы добродушный Джо. В городе он продает бананы в обмен на товары, нужные населению острова. Но в один из приездов полиция потребовала представить разрешение на торговлю бананами. Но именно ее у Джо и нет, как нет и паспорта, без которого не выдают лицензию.
Сэмпл: http://multi-up.com/920745
Тип релиза: BDRip 720p
Контейнер: MKV
Видео: AVC, 1280*692, 5208 Кбит/сек, 23,976 кадра/сек
Аудио: AC-3, 224 Кбит/сек, 2 Ch, 48,0 КГц-русский
Аудио 2: AC-3, 640 Кбит/сек, 2 Ch, 48,0 КГц-итальянский

MediaInfo

Общее
Уникальный идентификатор : 200202539117862850148179793857440491337 (0x969D9B43C6E946F8808306FC6899A749)
Полное имя : M:\Banana.Joe.1982.BluRay.720p..mkv
Формат : Matroska
Версия формата : Version 2
Размер файла : 4,08 Гбайт
Продолжительность : 1 ч. 36 м.
Общий поток : 6071 Кбит/сек
Дата кодирования : UTC 2013-08-26 08:08:28
Программа кодирования : mkvmerge v5.5.0 ('Healer') built on Apr 6 2012 21:43:24
Библиотека кодирования : libebml v1.2.3 + libmatroska v1.3.0
Видео
Идентификатор : 1
Формат : AVC
Формат/Информация : Advanced Video Codec
Профиль формата : High@L4.1
Параметр CABAC формата : Да
Параметр ReFrames формата : 8 кадров
Идентификатор кодека : V_MPEG4/ISO/AVC
Продолжительность : 1 ч. 36 м.
Битрейт : 5208 Кбит/сек
Ширина : 1280 пикселей
Высота : 692 пикселя
Соотношение сторон : 1,85:1
Режим частоты кадров : Постоянный
Частота кадров : 23,976 кадра/сек
Цветовое пространство : YUV
Субдискретизация насыщенности : 4:2:0
Битовая глубина : 8 бит
Тип развёртки : Прогрессивная
Бит/(Пиксели*Кадры) : 0.245
Размер потока : 3,42 Гбайт (84%)
Библиотека кодирования : x264 core 135 r2345 f0c1c53
Настройки программы : cabac=1 / ref=8 / deblock=1:-3:-3 / analyse=0x3:0x133 / me=umh / subme=10 / psy=1 / psy_rd=1.00:0.00 / mixed_ref=1 / me_range=16 / chroma_me=1 / trellis=2 / 8x8dct=1 / cqm=0 / deadzone=21,11 / fast_pskip=1 / chroma_qp_offset=-2 / threads=6 / lookahead_threads=1 / sliced_threads=0 / nr=0 / decimate=1 / interlaced=0 / bluray_compat=0 / constrained_intra=0 / bframes=10 / b_pyramid=2 / b_adapt=2 / b_bias=0 / direct=2 / weightb=1 / open_gop=0 / weightp=2 / keyint=240 / keyint_min=23 / scenecut=40 / intra_refresh=0 / rc_lookahead=40 / rc=2pass / mbtree=1 / bitrate=5208 / ratetol=1.0 / qcomp=0.60 / qpmin=0 / qpmax=69 / qpstep=4 / cplxblur=20.0 / qblur=0.5 / vbv_maxrate=50000 / vbv_bufsize=62500 / nal_hrd=none / ip_ratio=1.40 / aq=1:1.00
Default : Да
Forced : Нет
Аудио #1
Идентификатор : 2
Формат : AC-3
Формат/Информация : Audio Coding 3
Расширение режима : CM (complete main)
Параметр Endianness формата : Big
Идентификатор кодека : A_AC3
Продолжительность : 1 ч. 36 м.
Вид битрейта : Постоянный
Битрейт : 224 Кбит/сек
Каналы : 2 канала
Расположение каналов : Front: L R
Частота : 48,0 КГц
Битовая глубина : 16 бит
Метод сжатия : С потерями
Размер потока : 154 Мбайт (4%)
Язык : Russian
Default : Да
Forced : Нет
Аудио #2
Идентификатор : 3
Формат : AC-3
Формат/Информация : Audio Coding 3
Расширение режима : CM (complete main)
Параметр Endianness формата : Big
Идентификатор кодека : A_AC3
Продолжительность : 1 ч. 36 м.
Вид битрейта : Постоянный
Битрейт : 640 Кбит/сек
Каналы : 2 канала
Расположение каналов : Front: L R
Частота : 48,0 КГц
Битовая глубина : 16 бит
Метод сжатия : С потерями
Размер потока : 441 Мбайт (11%)
Язык : Italian
Default : Нет
Forced : Нет

Скриншоты

Скачать

Скачать торрент!

Как скачивать? · Что такое торрент? · Рейтинг и ограничения

Сайт не распространяет и не хранит электронные версии произведений, а лишь предоставляет доступ к создаваемому пользователями каталогу ссылок на торрент-файлы, которые содержат только списки хеш-сумм

[Профиль] [ЛС]
Показать сообщения:    
Ответить на тему

Текущее время: Сегодня 08:03

Часовой пояс: GMT + 4



Вы не можете начинать темы
Вы не можете отвечать на сообщения
Вы не можете редактировать свои сообщения
Вы не можете удалять свои сообщения
Вы не можете голосовать в опросах
Вы не можете прикреплять файлы к сообщениям
Вы не можете скачивать файлы