F5 (Тимофей Жалнин) [2012, драма, короткометражный, WEB-DLRip]

Ответить на тему
 
Автор Сообщение

user ®

Стаж: 7 лет 7 месяцев

Сообщений: 20008

Пост Пост: #1 от 06-Ноя-2013 21:30

[Цитировать]

F5Год выпуска: 2012
Страна: Россия
Жанр: мелодрама, короткометражный
Продолжительность: 00:33:38
Перевод: Не требуется
Режиссер: Тимофей Жалнин
Сценарий: Тимофей Жалнин
Продюсер: Дмитрий Жидков, Евгения Брагинец, Иван Лопатин
Оператор: Анна Рожецкая
Композитор: Антон Танонов
В ролях: Дарья Барабанова, Ирина Толчильщикова, Михаил Гурай, Майкл Хадсон-Описание: Катя и Галя, студентки челябинского института культуры, отправляются на международный фестиваль со своим хореографическим спектаклем. Девушки уверены, что их модерновая постановка покорит искушённую столичную публику и жюри. А значит их ждёт слава, гастроли, и мир большого искусства…-Рейтинг
Кинопоиск
IMDB-Качество: WEB-DLRip
Формат: AVI
Видео: XviD; 688x384 (16:9); 827 Kbps; 25 fps; 0.125 bpp
Аудио: MP3; 128 Kbps; CBR; 2 ch; 48.0 KHz-

MI

Format : AVI
Format/Info : Audio Video Interleave
File size : 232 MiB
Duration : 33mn 38s
Overall bit rate : 965 Kbps
Writing application : VirtualDubMod 1.5.10.3 | www.virtualdub-fr.org || (build 2550/release)
Writing library : VirtualDubMod build 2550/release
Video
ID : 0
Format : MPEG-4 Visual
Format profile : Advanced Simple@L5
Format settings, BVOP : 2
Format settings, QPel : No
Format settings, GMC : No warppoints
Format settings, Matrix : Default (MPEG)
Codec ID : XVID
Codec ID/Hint : XviD
Duration : 33mn 38s
Bit rate : 827 Kbps
Width : 688 pixels
Height : 384 pixels
Display aspect ratio : 16:9
Frame rate : 25.000 fps
Color space : YUV
Chroma subsampling : 4:2:0
Bit depth : 8 bits
Scan type : Progressive
Compression mode : Lossy
Bits/(Pixel*Frame) : 0.125
Stream size : 199 MiB (86%)
Writing library : XviD 1.2.1 (UTC 2008-12-04)
Audio
ID : 1
Format : MPEG Audio
Format version : Version 1
Format profile : Layer 3
Codec ID : 55
Codec ID/Hint : MP3
Duration : 33mn 38s
Bit rate mode : Constant
Bit rate : 128 Kbps
Channel(s) : 2 channels
Sampling rate : 48.0 KHz
Compression mode : Lossy
Stream size : 30.8 MiB (13%)
Alignment : Aligned on interleaves
Interleave, duration : 40 ms (1.00 video frame)
Interleave, preload duration : 504 ms
Writing library : LAME3.99r
Encoding settings : -m s -V 4 -q 2 -lowpass 17 -b 128

Скриншоты


Скачать

Скачать торрент!

Как скачивать? · Что такое торрент? · Рейтинг и ограничения

Сайт не распространяет и не хранит электронные версии произведений, а лишь предоставляет доступ к создаваемому пользователями каталогу ссылок на торрент-файлы, которые содержат только списки хеш-сумм

[Профиль] [ЛС]
Показать сообщения:    
Ответить на тему

Текущее время: Сегодня 22:03

Часовой пояс: GMT + 4



Вы не можете начинать темы
Вы не можете отвечать на сообщения
Вы не можете редактировать свои сообщения
Вы не можете удалять свои сообщения
Вы не можете голосовать в опросах
Вы не можете прикреплять файлы к сообщениям
Вы не можете скачивать файлы