Мы такие, какие есть / We Are What We Are (Джим Микл / JIM MICKLE) [2013, США, Ужасы, Триллер, Драма, BDRip] MVO (DeadSno & den904 & kon2011) + Original Eng

Ответить на тему
 
Автор Сообщение

user ®

Стаж: 7 лет 7 месяцев

Сообщений: 20008

Пост Пост: #1 от 06-Ноя-2013 15:50

[Цитировать]

Мы такие, какие есть / We Are What We Are
Страна: США
Жанр: Ужасы, Триллер, Драма
Год выпуска: 2013
Продолжительность: 01:45:09
Перевод: Любительский (многоголосый закадровый) DeadSno & den904
Перевод выполнил: kon2011
Cубтитры: нет
Оригинальная аудиодорожка: английский
Режиссер: Джим Микл / JIM MICKLE
В ролях: Кэсси ДеПайва, Лорен Рейто, Джулия Гарнер, Эмбир Чилдерс, Джек Гор, Билл Сейдж, Келли МакГиллис, Уайатт Расселл, Майкл Паркс, Аннемари Лоулесс
Описание: Казалось бы, обычная и доброжелательная семья Паркеров, всегда державшаяся особняком от остальных жителей городка, не могла бы привлечь к себе особого внимания, однако, в тихом омуте черти водятся. За закрытыми дверями, вспыльчивый глава семейства Фрэнк правит балом и хранит семейные секреты от посторонних глаз. Секреты, которые заставят содрогнуться от ужаса любого, кто прикоснется к ним..
Продюсер: Родриго Бельотт, Эндрю Коркин, Николас Шумакер
Дата мировой премьеры: 18 января 2013
Сэмпл: http://multi-up.com/920258
Качество видео: BDRip
Формат видео: AVI
Видео: XviD;720x304 (2.35:1);1498 Kbps;23,976 fps;0,286 bpp
Аудио: AC3, 48,0 КHz, 5.1, 448 Kbit/s (Русский двуголосый)
Аудио 2: AC3, 48,0 КHz, 5.1, 384 Kbit/s (Оригинальный английский)

MediaInfo

Общее
Полное имя : D:\Торренты\Мы такие, какие есть.2013.BDRip.avi
Формат : AVI
Формат/Информация : Audio Video Interleave
Размер файла : 1,72 Гбайт
Продолжительность : 1 ч. 45 м.
Общий поток : 2345 Кбит/сек
Программа кодирования : VirtualDubMod 1.5.10.2 (build 2542/release)
Библиотека кодирования : VirtualDubMod build 2542/release
Видео
Идентификатор : 0
Формат : MPEG-4 Visual
Профиль формата : Advanced Simple@L5
Параметр BVOP формата : 2
Параметр QPel формата : Нет
Параметр GMC формата : Без точки перехода
Параметр матрицы формата : Default (MPEG)
Идентификатор кодека : XVID
Идентификатор кодека/Подсказка : XviD
Продолжительность : 1 ч. 45 м.
Битрейт : 1499 Кбит/сек
Ширина : 720 пикс.
Высота : 304 пикс.
Соотношение сторон : 2,35:1
Частота кадров : 23,976 кадр/сек
Цветовое пространство : YUV
Подвыборка цветности : 4:2:0
Битовая глубина : 8 бит
Тип развёртки : Прогрессивная
Метод сжатия : С потерями
Бит/(Пиксели*Кадры) : 0.286
Размер потока : 1,10 Гбайт (64%)
Библиотека кодирования : XviD 1.2.1 (UTC 2008-12-04)
Аудио #1
Идентификатор : 1
Формат : AC-3
Формат/Информация : Audio Coding 3
Расширение режима : CM (complete main)
Идентификатор кодека : 2000
Продолжительность : 1 ч. 45 м.
Вид битрейта : Постоянный
Битрейт : 448 Кбит/сек
Каналы : 6 каналов
Расположение каналов : Front: L C R, Side: L R, LFE
Частота : 48,0 КГц
Битовая глубина : 16 бит
Метод сжатия : С потерями
Размер потока : 337 Мбайт (19%)
Выравнивание : Разделение по промежуткам
Продолжительность промежутка : 42 мс. (1,00 видеокадр)
Время предзагрузки промежутка : 500 ms
Аудио #2
Идентификатор : 2
Формат : AC-3
Формат/Информация : Audio Coding 3
Расширение режима : CM (complete main)
Идентификатор кодека : 2000
Продолжительность : 1 ч. 45 м.
Вид битрейта : Постоянный
Битрейт : 384 Кбит/сек
Каналы : 6 каналов
Расположение каналов : Front: L C R, Side: L R, LFE
Частота : 48,0 КГц
Битовая глубина : 16 бит
Метод сжатия : С потерями
Размер потока : 289 Мбайт (16%)
Выравнивание : Разделение по промежуткам
Продолжительность промежутка : 42 мс. (1,00 видеокадр)
Время предзагрузки промежутка : 500 ms

Скриншоты

Скриншот с названием

Скачать

Скачать торрент!

Как скачивать? · Что такое торрент? · Рейтинг и ограничения

Сайт не распространяет и не хранит электронные версии произведений, а лишь предоставляет доступ к создаваемому пользователями каталогу ссылок на торрент-файлы, которые содержат только списки хеш-сумм

[Профиль] [ЛС]
Показать сообщения:    
Ответить на тему

Текущее время: Сегодня 06:10

Часовой пояс: GMT + 4



Вы не можете начинать темы
Вы не можете отвечать на сообщения
Вы не можете редактировать свои сообщения
Вы не можете удалять свои сообщения
Вы не можете голосовать в опросах
Вы не можете прикреплять файлы к сообщениям
Вы не можете скачивать файлы