Армагеддец / The World\'s End (Эдгар Райт / Edgar Wright) [2013, Великобритания, фантастика, боевик, комедия, HDRip] VO (VANO) + Original Eng

Ответить на тему
 
Автор Сообщение

user ®

Стаж: 7 лет 7 месяцев

Сообщений: 20008

Пост Пост: #1 от 06-Ноя-2013 15:50

[Цитировать]

Армагеддец
The World's End
--Страна: Великобритания
Жанр: фантастика, боевик, комедия
Год выпуска: 2013
Продолжительность: 01:49:07--Перевод: Одноголосый закадровый VANO
Cубтитры: нет
Оригинальная аудиодорожка: английская--Режиссер: Эдгар Райт / Edgar Wright--В ролях: Саймон Пегг, Ник Фрост, Пэдди Консидайн, Мартин Фриман, Эдди Марсан, Розамунд Пайк, Пирс Броснан, Дэвид Брэдли, Стив Орам,
Томас Ло--Описание: Их подвиг был бы увековечен в Книге рекордов Гиннесса, если бы они знали, что Гиннесс — это не только пиво. Пятеро друзей ставят себе высокую цель — организовать грандиозный забег по барам. Опасности подстерегают их на каждом шагу: красотка, от которой сходила с ума вся школа, так и тянет налево, в то время как справа надвигается таинственная угроза. В результате алкомарафон плавно переходит в реальный Армагеддец…
--Сэмпл
Качество видео: HDRip
Формат видео: AVI
Видео: Xvid 720x304 23.976fps 1338Kbps
Аудио: Dolby AC3 48000Hz stereo 256kbps (Ru)
Аудио 2: Dolby AC3 48000Hz stereo 192kbps (En)--

MediaInfo

General
Complete name                  : D:\TORRENTS\The.World's.End.2013.L1.HDRip.1400MB.avi
Format                         : AVI
Format/Info                    : Audio Video Interleave
File size                      : 1.37 GiB
Duration                       : 1h 49mn
Overall bit rate               : 1 799 Kbps
Writing application            : VirtualDubMod 1.5.10.2 (build 2540/release)
Writing library                : VirtualDubMod build 2540/release
Video
ID                             : 0
Format                         : MPEG-4 Visual
Format profile                 : Advanced Simple@L5
Format settings, BVOP          : Yes
Format settings, QPel          : No
Format settings, GMC           : No warppoints
Format settings, Matrix        : Custom
Codec ID                       : XVID
Codec ID/Hint                  : XviD
Duration                       : 1h 49mn
Bit rate                       : 1 338 Kbps
Width                          : 720 pixels
Height                         : 304 pixels
Display aspect ratio           : 2.35:1
Frame rate                     : 23.976 fps
Color space                    : YUV
Chroma subsampling             : 4:2:0
Bit depth                      : 8 bits
Scan type                      : Progressive
Compression mode               : Lossy
Bits/(Pixel*Frame)             : 0.255
Stream size                    : 1.02 GiB (74%)
Writing library                : XviD 1.2.1 (UTC 2008-12-04)
Audio #1
ID                             : 1
Format                         : AC-3
Format/Info                    : Audio Coding 3
Mode extension                 : CM (complete main)
Format settings, Endianness    : Big
Codec ID                       : 2000
Duration                       : 1h 48mn
Bit rate mode                  : Constant
Bit rate                       : 256 Kbps
Channel count                  : 2 channels
Channel positions              : Front: L R
Sampling rate                  : 48.0 KHz
Bit depth                      : 16 bits
Compression mode               : Lossy
Stream size                    : 200 MiB (14%)
Alignment                      : Split accross interleaves
Interleave, duration           : 42 ms (1.00 video frame)
Interleave, preload duration   : 500 ms
Audio #2
ID                             : 2
Format                         : AC-3
Format/Info                    : Audio Coding 3
Mode extension                 : CM (complete main)
Format settings, Endianness    : Big
Codec ID                       : 2000
Duration                       : 1h 48mn
Bit rate mode                  : Constant
Bit rate                       : 192 Kbps
Channel count                  : 2 channels
Channel positions              : Front: L R
Sampling rate                  : 48.0 KHz
Bit depth                      : 16 bits
Compression mode               : Lossy
Stream size                    : 150 MiB (11%)
Alignment                      : Split accross interleaves
Interleave, duration           : 42 ms (1.00 video frame)
Interleave, preload duration   : 500 ms

Скриншоты

-

-
-
Скачать

Скачать торрент!

Как скачивать? · Что такое торрент? · Рейтинг и ограничения

Сайт не распространяет и не хранит электронные версии произведений, а лишь предоставляет доступ к создаваемому пользователями каталогу ссылок на торрент-файлы, которые содержат только списки хеш-сумм

[Профиль] [ЛС]
Показать сообщения:    
Ответить на тему

Текущее время: Сегодня 19:41

Часовой пояс: GMT + 4



Вы не можете начинать темы
Вы не можете отвечать на сообщения
Вы не можете редактировать свои сообщения
Вы не можете удалять свои сообщения
Вы не можете голосовать в опросах
Вы не можете прикреплять файлы к сообщениям
Вы не можете скачивать файлы