Однажды в Мумбаи 2 / Однажды в Мумбаи. История повторяется / Once Upon a Time in Mumbai Dobaara! (Милан Лутрия / Milan Luthria) [2013, Индия, Боевик, драма, криминал, DVDRip] MVO (ICG) + Rus Sub

Ответить на тему
 
Автор Сообщение

user ®

Стаж: 7 лет 7 месяцев

Сообщений: 20008

Пост Пост: #1 от 06-Ноя-2013 06:20

[Цитировать]

Однажды в Мумбаи 2 / Once Upon a Time in Mumbai Dobaara!- Страна: Индия
Жанр: Боевик, драма, криминал
Год выпуска: 2013
Продолжительность: 02:28:05-Язык: Хинди
Перевод: Любительский (многоголосый закадровый) - ICG
Cубтитры: Pусские (полные, песни) [перевод: Rummata]--Режиссер: Милан Лутрия / Milan Luthria-В ролях: Акшай Кумар, Сонакши Синха, Видья Балан, Имран Кхан, Махеш Манджрекар, София Чаудхари, Синг Амбхимани Шехар, Сонали Бендре--Описание: Самый долгожданный сиквел 2013 года с великолепным звёздным составом: Акшай Кумар, Имран Кхан, Сонакши Синха и Сонали Бендре. Это история возвращения принца зла, ставшего королём мафии. Здесь есть всё: и преступный мир, и любовь, и драма. Король мафии Шоиб (Акшай Кумар) - ослепительный, могущественный, повергающий в ужас всех вокруг. У него есть всё, о чём он с детства мечтал, но его сердце одиноко. Единственная любовь всей его жизни - это Бомбей. Манящий, опасный, роковой. Теперь этот город уготовил ему новое испытание. Способен ли покоритель территорий завоевать сердце невинной девушки (Сонакши Синха)? Способен ли он сам на любовь? И если да, то чем она для него обернётся - проклятием или спасением?...-- | Трейлер | Сэмпл--Качество видео: DVDRip
Формат видео: AVI-Видео: XviD, 720x304, 23.976 fps, 1420 kbps
Аудио #1: 48 kHz, АС3, 6 ch, 448 kbps [Rus]
Аудио: #2 48 kHz, АС3, 2 ch, 224 kbps [Hindi]
Формат субтитров: softsub (SRT)-Доп. информация:
  • о субтитрах: внешние: #полные, #песни
-Релиз по заказу (спасибо!)-Сэмпл / Sample-
-

Скриншот с названием


-

Скриншоты


-

MI

Общее
Полное имя : C:\INDIYA\[Релизы]\Once.Upon.A.Time.In.Mumbai.Dobaara.2013.DVDRip.Rus.Original.ICG.GeneralFilm\Once.Upon.A.Time.In.Mumbai.Dobaara.2013.DVDRip.Rus.Original.ICG.GeneralFilm.avi
Формат : AVI
Формат/Информация : Audio Video Interleave
Профиль формата : OpenDML
Размер файла : 2,18 Гбайт
Продолжительность : 2 ч. 28 м.
Общий поток : 2110 Кбит/сек
Программа кодирования : VirtualDubModRus 1.5.10.2 (build 2542/release)
Библиотека кодирования : VirtualDubMod build 2542/release
Видео
Идентификатор : 0
Формат : MPEG-4 Visual
Профиль формата : Advanced Simple@L5
Параметр BVOP формата : 1
Параметр QPel формата : Нет
Параметр GMC формата : Без точки перехода
Параметр матрицы формата : Выборочная
Идентификатор кодека : XVID
Идентификатор кодека/Подсказка : XviD
Продолжительность : 2 ч. 28 м.
Битрейт : 1420 Кбит/сек
Ширина : 720 пикселей
Высота : 304 пикселя
Соотношение сторон : 2,35:1
Частота кадров : 23,976 кадра/сек
Цветовое пространство : YUV
Субдискретизация насыщенности : 4:2:0
Битовая глубина : 8 бит
Тип развёртки : Прогрессивная
Метод сжатия : С потерями
Бит/(Пиксели*Кадры) : 0.271
Размер потока : 1,47 Гбайт (67%)
Библиотека кодирования : XviD 64
Аудио #1
Идентификатор : 1
Формат : AC-3
Формат/Информация : Audio Coding 3
Расширение режима : CM (complete main)
Параметр Endianness формата : Big
Идентификатор кодека : 2000
Продолжительность : 2 ч. 28 м.
Вид битрейта : Постоянный
Битрейт : 448 Кбит/сек
Каналы : 6 каналов
Расположение каналов : Front: L C R, Side: L R, LFE
Частота : 48,0 КГц
Битовая глубина : 16 бит
Метод сжатия : С потерями
Задержка видео : 25 мс.
Размер потока : 475 Мбайт (21%)
Выравнивание : Разделение по промежуткам
Продолжительность промежутка : 42 мс. (1,00 видеокадр)
Время предзагрузки промежутка : 500 мс.
Аудио #2
Идентификатор : 2
Формат : AC-3
Формат/Информация : Audio Coding 3
Расширение режима : CM (complete main)
Параметр Endianness формата : Big
Идентификатор кодека : 2000
Продолжительность : 2 ч. 28 м.
Вид битрейта : Постоянный
Битрейт : 224 Кбит/сек
Каналы : 2 канала
Расположение каналов : Front: L R
Частота : 48,0 КГц
Битовая глубина : 16 бит
Метод сжатия : С потерями
Размер потока : 237 Мбайт (11%)
Выравнивание : Соединение по промежуткам
Продолжительность промежутка : 42 мс. (1,00 видеокадр)
Время предзагрузки промежутка : 512 мс.
Скачать

Скачать торрент!

Как скачивать? · Что такое торрент? · Рейтинг и ограничения

Сайт не распространяет и не хранит электронные версии произведений, а лишь предоставляет доступ к создаваемому пользователями каталогу ссылок на торрент-файлы, которые содержат только списки хеш-сумм

[Профиль] [ЛС]
Показать сообщения:    
Ответить на тему

Текущее время: Сегодня 13:40

Часовой пояс: GMT + 4



Вы не можете начинать темы
Вы не можете отвечать на сообщения
Вы не можете редактировать свои сообщения
Вы не можете удалять свои сообщения
Вы не можете голосовать в опросах
Вы не можете прикреплять файлы к сообщениям
Вы не можете скачивать файлы