Возвращение на остров Ним / Return to Nim\'s Island (Брендан Мехер / Brendan Maher) [2013, Австралия, семейный, приключения, комедия, HDRip] DVO (sweet couple)

Ответить на тему
 
Автор Сообщение

user ®

Стаж: 7 лет 7 месяцев

Сообщений: 20008

Пост Пост: #1 от 06-Ноя-2013 06:20

[Цитировать]

Возвращение на остров Ним
Return to Nim's Island
--Страна: Австралия
Жанр: семейный, приключения, комедия
Год выпуска: 2013
Продолжительность: 01:30:06--Перевод: Любительский (двухголосый закадровый) sweet couple
Cубтитры: нет
Оригинальная аудиодорожка: нет--Режиссер: Брендан Мехер / Brendan Maher--В ролях: Бинди Сью Ирвин, Тоби Уоллес, Джон Уотерс, Мэттью Лиллард, Джек Пирсон, Себастьян Грегори, Нэйтан Деррик--Описание: 14-летняя Ним по-прежнему настроена более чем решительно — она твердо намерена защитить свой остров и его лесных обителей от устроителей курорта и браконьеров. Но теперь героиня понимает, что в столь трудном деле, как спасение ее дома, она не может рассчитывать на помощь лишь одних животных. Так у Ним появляется друг-человек — Эдмунд, который сбежал на остров с материка.-- --Качество видео: HDRip
Формат видео: AVI
Видео: Xvid 656x368 23.976fps 1018Kbps
Аудио: MP3 48000Hz stereo 128kbps--

MediaInfo


-
-
General
Complete name                  : D:\TORRENTS\Return.to.Nim's.Island.2013.HDRip(AleksSin).avi
Format                         : AVI
Format/Info                    : Audio Video Interleave
File size                      : 745 MiB
Duration                       : 1h 30mn
Overall bit rate               : 1 156 Kbps
Writing application            : VirtualDubMod 1.5.10.3 | www.virtualdub-fr.org || (build 2550/release)
Writing library                : VirtualDubMod build 2550/release
Video
ID                             : 0
Format                         : MPEG-4 Visual
Format profile                 : Advanced Simple@L5
Format settings, BVOP          : Yes
Format settings, QPel          : No
Format settings, GMC           : No warppoints
Format settings, Matrix        : Default (H.263)
Codec ID                       : XVID
Codec ID/Hint                  : XviD
Duration                       : 1h 30mn
Bit rate                       : 1 018 Kbps
Width                          : 656 pixels
Height                         : 368 pixels
Display aspect ratio           : 16:9
Frame rate                     : 23.976 fps
Color space                    : YUV
Chroma subsampling             : 4:2:0
Bit depth                      : 8 bits
Scan type                      : Progressive
Compression mode               : Lossy
Bits/(Pixel*Frame)             : 0.176
Stream size                    : 656 MiB (88%)
Writing library                : XviD 1.2.1 (UTC 2008-12-04)
Audio
ID                             : 1
Format                         : MPEG Audio
Format version                 : Version 1
Format profile                 : Layer 3
Codec ID                       : 55
Codec ID/Hint                  : MP3
Duration                       : 1h 30mn
Bit rate mode                  : Constant
Bit rate                       : 128 Kbps
Channel count                  : 2 channels
Sampling rate                  : 48.0 KHz
Compression mode               : Lossy
Stream size                    : 82.5 MiB (11%)
Alignment                      : Aligned on interleaves
Interleave, duration           : 42 ms (1.00 video frame)
Interleave, preload duration   : 504 ms
Writing library                : LAME3.99r
Encoding settings              : -m s -V 4 -q 2 -lowpass 17 -b 128

Скриншоты

-

-
-
Скачать

Скачать торрент!

Как скачивать? · Что такое торрент? · Рейтинг и ограничения

Сайт не распространяет и не хранит электронные версии произведений, а лишь предоставляет доступ к создаваемому пользователями каталогу ссылок на торрент-файлы, которые содержат только списки хеш-сумм

[Профиль] [ЛС]
Показать сообщения:    
Ответить на тему

Текущее время: Сегодня 06:00

Часовой пояс: GMT + 4



Вы не можете начинать темы
Вы не можете отвечать на сообщения
Вы не можете редактировать свои сообщения
Вы не можете удалять свои сообщения
Вы не можете голосовать в опросах
Вы не можете прикреплять файлы к сообщениям
Вы не можете скачивать файлы