Слияние двух лун / Two Moon Junction (Залман Кинг / Zalman King) [1988, США, эротическая драма, HDTV 1080i] MVO ("СВ-Дубль" ) + DVO ( НТВ+) + Original Eng

Ответить на тему
 
Автор Сообщение

user ®

Стаж: 7 лет 7 месяцев

Сообщений: 20008

Пост Пост: #1 от 06-Ноя-2013 00:50

[Цитировать]

Слияние двух лун / Two Moon Junction
Страна: США
Студия: DDM Film Corporation,Lorimar Motion Pictures,Planet Productions
Жанр: эротическая драма
Год выпуска: 1988
Продолжительность: 01:40:41
Перевод: Профессиональный (многоголосый закадровый) "СВ-Дубль"
Перевод : Профессиональный (двухголосый закадровый) Профессиональный (двухголосый закадровый) НТВ+
Cубтитры: нет
Оригинальная аудиодорожка: английская
Режиссер: Залман Кинг / Zalman King
В ролях: Шерилин Фенн, Ричард Тайсон, Луиза Флетчер, Берл Айвз, Кристи МакНикол, Мартин Хьюит, Хуанита Мур, Дон Гэлловэй, Милли Перкинс, Милла Йовович
Описание: Жизнь юной и обворожительной Эйприл похожа на прекрасную сказку — знатные родители, шикарный дом, бабушка — миллионерша и респектабельных жених из богатой аристократической семьи. В высшем обществе они считаются идеальной парой.
Но за две недели до свадьбы Эйприл, беспокойная и чувственная натура, влюбляется в загадочного мускулистого красавца Перри, работающего в приехавшем в город передвижном парке аттракционов, и они с головой окунаются в омут всепоглощающей страсти…
Сэмпл: http://www.sendspace.com/file/aawcil
Тип релиза: HDTV 1080i
Контейнер: TS
Видео: MPEG4 Video (H264) 1920x1080 25fps 6322 Кбит/сек
Аудио 1: Dolby AC3 48000Hz stereo 192kbps / RUS
Аудио 2: Dolby AC3 48000Hz stereo 192kbps /RUS
Аудио 3: MPEG Audio 48000Hz stereo 192kbps /ENG

MediaInfo

D : 1 (0x1)
Complete name : D:\HDTV\Слияние двух лун Two Moon Junction (1988)\Two Moon Junction_HDTV_1080i.ts
Format : MPEG-TS
File size : 5,11 Гбайт
Duration : 1 ч. 40 м.
Overall bit rate mode : Переменный
Overall bit rate : 7263 Кбит/сек
Maximum Overall bit rate : 35,5 Мбит/сек
Видео
ID : 4113 (0x1011)
Menu ID : 1 (0x1)
Format : AVC
Format/Info : Advanced Video Codec
Format profile : High@L4.0
Format settings, CABAC : Да
Format settings, ReFrames : 3 кадра
Format settings, GOP : M=4, N=28
Codec ID : 27
Duration : 1 ч. 40 м.
Bit rate mode : Переменный
Bit rate : 6322 Кбит/сек
Maximum bit rate : 40,0 Мбит/сек
Width : 1920 пикселей
Height : 1080 пикселей
Display aspect ratio : 16:9
Frame rate : 25,000 кадров/сек
Standard : Component
Color space : YUV
Chroma subsampling : 4:2:0
Bit depth : 8 бит
Scan type : Чересстрочная
Scan order : Верхнее поле первое
Bits/(Pixel*Frame) : 0.122
Stream size : 4,45 Гбайт (87%)
Основные цвета : BT.709
Характеристики трансфера : BT.709
Коэффициенты матрицы : BT.709
Аудио #1
ID : 4352 (0x1100)
Menu ID : 1 (0x1)
Format : AC-3
Format/Info : Audio Coding 3
Mode extension : CM (complete main)
Format settings, Endianness : Big
Codec ID : 129
Duration : 1 ч. 40 м.
Bit rate mode : Постоянный
Bit rate : 192 Кбит/сек
Channel(s) : 2 канала
Channel positions : Front: L R
Sampling rate : 48,0 КГц
Bit depth : 16 бит
Compression mode : С потерями
Stream size : 138 Мбайт (3%)
Language : Russian
Аудио #2
ID : 4353 (0x1101)
Menu ID : 1 (0x1)
Format : AC-3
Format/Info : Audio Coding 3
Mode extension : CM (complete main)
Format settings, Endianness : Big
Codec ID : 129
Duration : 1 ч. 40 м.
Bit rate mode : Постоянный
Bit rate : 192 Кбит/сек
Channel(s) : 2 канала
Channel positions : Front: L R
Sampling rate : 48,0 КГц
Bit depth : 16 бит
Compression mode : С потерями
Stream size : 138 Мбайт (3%)
Language : Russian
Аудио #3
ID : 4354 (0x1102)
Menu ID : 1 (0x1)
Format : MPEG Audio
Format version : Version 1
Format profile : Layer 2
Codec ID : 4
Duration : 1 ч. 40 м.
Bit rate mode : Постоянный
Bit rate : 192 Кбит/сек
Channel(s) : 2 канала
Sampling rate : 48,0 КГц
Compression mode : С потерями
Delay relative to video : 65 мс.
Stream size : 138 Мбайт (3%)
Language : English

Скриншоты

Скачать

Скачать торрент!

Как скачивать? · Что такое торрент? · Рейтинг и ограничения

Сайт не распространяет и не хранит электронные версии произведений, а лишь предоставляет доступ к создаваемому пользователями каталогу ссылок на торрент-файлы, которые содержат только списки хеш-сумм

[Профиль] [ЛС]
Показать сообщения:    
Ответить на тему

Текущее время: Сегодня 20:39

Часовой пояс: GMT + 4



Вы не можете начинать темы
Вы не можете отвечать на сообщения
Вы не можете редактировать свои сообщения
Вы не можете удалять свои сообщения
Вы не можете голосовать в опросах
Вы не можете прикреплять файлы к сообщениям
Вы не можете скачивать файлы