Телекинез / Carrie (Кимберли Пирс / Kimberly Peirce) [2013, США, Триллер, драма, CAMRip] VO [VANO]

Ответить на тему
 
Автор Сообщение

user ®

Стаж: 7 лет 7 месяцев

Сообщений: 20008

Пост Пост: #1 от 06-Ноя-2013 00:50

[Цитировать]

Телекинез / Carrie-«Ты ещё узнаешь её имя»- Год выпуска: 2013
Страна: США
Студия: Metro-Goldwyn-Mayer (MGM), Misher Films, Screen Gems
Жанр: Триллер, драма
Продолжительность: 01:30:27
Перевод: Одноголосый закадровый, любительский (VANO)
Cубтитры: нет-Режиссер: Кимберли Пирс / Kimberly Peirce-В ролях: Хлои Грейс Моретц, Джулианна Мур, Джуди Грир, Габриэлла Уайлд, Алекс Расселл, Портия Даблдэй, Синтия Престон, Коннор Прайс, Ким Робертс, Кайл Мак-Описание: Невзрачная старшеклассница по имени Кэрри с рождения обладает способностями телекинеза. Давление со стороны фанатично религиозной мамочки и постоянные издевки сверстников лишь способствует развитию ее сверхъестественных способностей. На выпускном одноклассники решают жестоко подшутить над ней, что приводит к фатальным последствиям.-Дата мировой премьеры: 7 октября 2013
Дата российской премьеры: 14 ноября 2013, «WDSSPR»
Дата выхода DVD релиза: 13 февраля 2014, «Двадцатый Век Фокс СНГ»- -Качество видео: CAMRip
Формат видео: AVI
Видео: 720x304 (2.37:1), 29.970 fps, XviD build 50 ~ 948 kbps avg, 0.14 bit/pixel
Аудио: MPEG Layer 3, 2 ch, 128.00 kbps avg, 48 kHz-

MediaInfo

General
Complete name : C:\Новинки\Телекинез.2013.700MB.avi
Format : AVI
Format/Info : Audio Video Interleave
File size : 704 MiB
Duration : 1h 30mn
Overall bit rate : 1 088 Kbps
Writing application : VirtualDubMod 1.5.10.3 | www.virtualdub-fr.org || (build 2550/release)
Writing library : VirtualDubMod build 2550/release
Video
ID : 0
Format : MPEG-4 Visual
Format profile : Advanced Simple@L5
Format settings, BVOP : 1
Format settings, QPel : No
Format settings, GMC : No warppoints
Format settings, Matrix : Default (MPEG)
Codec ID : XVID
Codec ID/Hint : XviD
Duration : 1h 30mn
Bit rate : 949 Kbps
Width : 720 pixels
Height : 304 pixels
Display aspect ratio : 2.35:1
Frame rate : 29.970 fps
Color space : YUV
Chroma subsampling : 4:2:0
Bit depth : 8 bits
Scan type : Progressive
Compression mode : Lossy
Bits/(Pixel*Frame) : 0.145
Stream size : 614 MiB (87%)
Writing library : XviD 1.2.1 (UTC 2008-12-04)
Audio
ID : 1
Format : MPEG Audio
Format version : Version 1
Format profile : Layer 3
Codec ID : 55
Codec ID/Hint : MP3
Duration : 1h 30mn
Bit rate mode : Constant
Bit rate : 128 Kbps
Channel count : 2 channels
Sampling rate : 48.0 KHz
Compression mode : Lossy
Stream size : 82.8 MiB (12%)
Alignment : Aligned on interleaves
Interleave, duration : 33 ms (1.00 video frame)
Interleave, preload duration : 504 ms
Writing library : LAME3.99r
Encoding settings : -m s -V 4 -q 2 -lowpass 17 -b 128

Скриншот c названием фильма

Скриншоты

Дополнительный постер

-
Скачать

Скачать торрент!

Как скачивать? · Что такое торрент? · Рейтинг и ограничения

Сайт не распространяет и не хранит электронные версии произведений, а лишь предоставляет доступ к создаваемому пользователями каталогу ссылок на торрент-файлы, которые содержат только списки хеш-сумм

[Профиль] [ЛС]
Показать сообщения:    
Ответить на тему

Текущее время: Сегодня 06:25

Часовой пояс: GMT + 4



Вы не можете начинать темы
Вы не можете отвечать на сообщения
Вы не можете редактировать свои сообщения
Вы не можете удалять свои сообщения
Вы не можете голосовать в опросах
Вы не можете прикреплять файлы к сообщениям
Вы не можете скачивать файлы