Баранкин, будь человеком! (Александра Снежко-Блоцкая) [1963 г., Мультфильм, DVDRip]

Ответить на тему
 
Автор Сообщение

user ®

Стаж: 7 лет 7 месяцев

Сообщений: 20008

Пост Пост: #1 от 05-Ноя-2013 21:40

[Цитировать]

Баранкин, будь человеком!Страна: СССР
Жанр: Мультфильм
Продолжительность: 00:20:13
Год выпуска: 1963
Выпущено: «Союзмультфильм»
Режиссёр: Александра Снежко-Блоцкая
Русские субтитры: нетОписание:По одноимённой повести В. Медведева.
Ленивый и непослушный ученик Баранкин и его друг-одноклассник Костя Малинин позавидовали беззаботному существованию бабочек, муравьёв, воробьёв… И что из этого вышло.

XV Фестиваль фильмов для детей и юношества в Венеции, 1963 г. — Бронзовая медаль.

Цитаты:
— Если по-настощему захотеть, то даже курносый нос может превратиться в орлиный!
— Оболтус! Уроки учить надо, а не из рогаток стрелять!
— Это кто не хочет учиться?
— Я! … А драться — не педагогично!
— Гнездо вьётся так: в рот берётся соломинка и сворачичивается в колечко.
— А, может, мы и не уснём. Мы ведь не простые бабочки, а человекообразные!
— Странно: выходной день, а они работают.
— Инстинкт. Муравьи ему подчиняются.

Режиссёр и команда

Режиссёр: Александра Снежко-Блоцкая
сценарист В. Медведев
художник-постановщик: Ильдар Урманче
Художники: Ирина Светлица, Е. Танненберг
Аниматоры: Татьяна Фёдорова, Владимир Карп, Татьяна Таранович, Е. Вершинина, Константин Чикин, Борис Чани, О. Столбова, Борис Бутаков, Владимир Крумин, Галина Баринова, Елизавета Комова.
кинооператор: Е. Ризо
композитор: Виталий Гевиксман
звукорежиссёр: Борис Фильчиков
редактор З. Павлова
Качество: DVDRip
Формат: AVI
Видео: 720x544 (1.32:1), 25 fps, XviD build 64 ~2401 kbps avg, 0.25 bit/pixel
Аудио: 48 kHz, AC3 Dolby Digital, 2/0 (L,R) ch, ~192 kbps
Субтитры: отсутствуют

Подробные технические данные

ОбщееПолное имя : D:\Мульты\Barankin_(Byli-nebylitzy_4).aviФормат : AVIФормат/Информация : Audio Video InterleaveРазмер файла : 377 МбайтПродолжительность : 20 м.Общий поток : 2603 Кбит/секПрограмма кодирования : VirtualDubMod 1.5.10.2 (build 2540/release)Библиотека кодирования : VirtualDubMod build 2540/release
ВидеоИдентификатор : 0Формат : MPEG-4 VisualПрофиль формата : Advanced Simple@L5Параметр BVOP формата : 2Параметр QPel формата : НетПараметр GMC формата : Без точки переходаПараметр матрицы формата : ВыборочнаяИдентификатор кодека : XVIDИдентификатор кодека/Подсказка : XviDПродолжительность : 20 м.Битрейт : 2401 Кбит/секШирина : 720 пикселейВысота : 544 пикселяСоотношение сторон : 4:3Частота кадров : 25,000 кадров/секЦветовое пространство : YUVСубдискретизация насыщенности : 4:2:0Битовая глубина : 8 битТип развёртки : ПрогрессивнаяМетод сжатия : С потерямиБит/(Пиксели*Кадры) : 0.245Размер потока : 347 Мбайт (92%)Библиотека кодирования : XviD 64
АудиоИдентификатор : 1Формат : AC-3Формат/Информация : Audio Coding 3Расширение режима : CM (complete main)Идентификатор кодека : 2000Продолжительность : 20 м.Вид битрейта : ПостоянныйБитрейт : 192 Кбит/секКаналы : 2 каналаРасположение каналов : Front: L RЧастота : 48,0 КГцБитовая глубина : 16 битМетод сжатия : С потерямиРазмер потока : 27,8 Мбайт (7%)Выравнивание : Разделение по промежуткамПродолжительность промежутка : 40 мс. (1,00 видеокадр)Время предзагрузки промежутка : 500 мс.
Subtitles: Not Present

Скриншоты

Скачать

Скачать торрент!

Как скачивать? · Что такое торрент? · Рейтинг и ограничения

Сайт не распространяет и не хранит электронные версии произведений, а лишь предоставляет доступ к создаваемому пользователями каталогу ссылок на торрент-файлы, которые содержат только списки хеш-сумм

[Профиль] [ЛС]
Показать сообщения:    
Ответить на тему

Текущее время: Сегодня 23:16

Часовой пояс: GMT + 4



Вы не можете начинать темы
Вы не можете отвечать на сообщения
Вы не можете редактировать свои сообщения
Вы не можете удалять свои сообщения
Вы не можете голосовать в опросах
Вы не можете прикреплять файлы к сообщениям
Вы не можете скачивать файлы