Экспресс миллионеров / Шанхайский экспресс / Millionaires Express / Foo gwai lit che (Саммо Хунг / Sammo Hung) [1986, Гонконг, Боевик, комедия, вестерн, HDRip] [International version] AVO (Королев)

Ответить на тему
 
Автор Сообщение

user ®

Стаж: 11 лет

Сообщений: 15151

Пост Пост: #1 от 05-Ноя-2013 18:30

[Цитировать]

Экспресс миллионеров / Шанхайский экспресс / Millionaires Express / Foo gwai lit che / Международная версия
Страна: Гонконг
Жанр: Боевик, комедия, вестерн
Год выпуска: 1986
Продолжительность: 01:29:58
Перевод: Авторский (одноголосый закадровый) Владимир Королев
Cубтитры: нет
Режиссер: Саммо Хунг / Sammo Hung
В ролях: Саммо Хунг, Юэнь Бяо, Синтия Ротрок, Ричард Нортон, Ясуаки Курата, Розамунд Кван, Кенни Би, Ланг Чан, Оливия Чэнheng, Кар Лок Чин, Эмили Чу, Фэт Чунг
Описание: Конец 30-х годов. Обаятельный авантюрист Чин (Саммо Хунг) после увлекательных приключений в России возвращается в родную деревню на китайской границе. За время его отсутствия дома многое изменилось. Местный начальник полиции (Эрик Тсанг) со своими подчиненными ограбили банк и сбежали. Его место занял бывший начальник пожарной охраны Тсао (Юэнь Биао). В окрестностях городка появляется конная банда, в рядах которой два американских ковбоя (Ричард Нортон и Синтия Ротрок), собирающиеся напасть на экспресс из Шанхая с целью завладеть некой картой древних сокровищ. Кстати, Чин возвращается домой не один, а с толпой молодых и симпатичных девушек. Он открывает в деревне что-то вроде светского салона. Чтобы увеличить приток посетителей и позволить деревне разбогатеть, он взрывает рельсы прямо перед тем самым экспрессом, набитым миллионерами из Шанхая. На этот же поезд пытались залезть и беглый начальник полиции с подчиненными. В результате они попадают прямо в деревенскую тюрьму, а пассажиры экспресса - в салон Чина…Великолепные, зрелищные боевые сцены, которые сегодня стали бесспорным образцом гонконгской кинопродукции середины 80-х гг. (Поставлены каскадерской ассоциацией Саммо Хунга)
Исходник BDRip (1080p) (СПАСИБО! Мастер5)
Доп. информация:
На трекере присутствуют разные версии фильма:

Источник информации:

http://www.schnittberichte.com/schnittbericht.php?ID=727560
Сэмпл: http://multi-up.com/919365
Качество видео: HDRip
Формат видео: AVI
Видео: XviD build 50, 688x288 (2.39:1), 23.976 fps, 1020 kbps avg
Аудио: MPEG Layer 3, 48 kHz, 2/0 (L,R) ch, 128.00 kbps avg

MediaInfo

General
Complete name : D:\Ekspress.millionerov.1986.HDRip-Dego.avi
Format : AVI
Format/Info : Audio Video Interleave
File size : 745 MiB
Duration : 1h 29mn
Overall bit rate : 1 157 Kbps
Writing application : VirtualDubMod 1.5.10.2 (build 2540/release)
Writing library : VirtualDubMod build 2540/release
Video
ID : 0
Format : MPEG-4 Visual
Format profile : AdvancedSimple@L5
Format settings, BVOP : Yes
Format settings, QPel : No
Format settings, GMC : No warppoints
Format settings, Matrix : Default (MPEG)
Codec ID : XVID
Codec ID/Hint : XviD
Duration : 1h 29mn
Bit rate : 1 020 Kbps
Width : 688 pixels
Height : 288 pixels
Display aspect ratio : 2.35
Frame rate : 23.976 fps
Resolution : 24 bits
Colorimetry : 4:2:0
Scan type : Progressive
Bits/(Pixel*Frame) : 0.215
Stream size : 657 MiB (88%)
Writing library : XviD 1.2.1 (UTC 2008-12-04)
Audio
ID : 1
Format : MPEG Audio
Format version : Version 1
Format profile : Layer 3
Codec ID : 55
Codec ID/Hint : MP3
Duration : 1h 29mn
Bit rate mode : Constant
Bit rate : 128 Kbps
Channel(s) : 2 channels
Sampling rate : 48.0 KHz
Resolution : 16 bits
Stream size : 82.4 MiB (11%)
Alignment : Aligned on interleaves
Interleave, duration : 42 ms (1.00 video frame)
Interleave, preload duration : 504 ms
Writing library : LAME3.98r
Encoding settings : -m s -V 4 -q 2 -lowpass 17 -b 128

Скриншоты

Скачать

Скачать торрент! Экспресс миллионеров / Шанхайский экспресс / Millionaires Express / Foo gwai lit che (Саммо Хунг / Sammo Hung) [1986, Гонконг, Боевик, комедия, вестерн, HDRip] [International version] AVO (Королев)

Как скачивать? · Что такое торрент? · Рейтинг и ограничения

Сайт не распространяет и не хранит электронные версии произведений, а лишь предоставляет доступ к создаваемому пользователями каталогу ссылок на торрент-файлы, которые содержат только списки хеш-сумм

[Профиль] [ЛС]
Показать сообщения:    
Ответить на тему

Текущее время: Сегодня 19:05

Часовой пояс: GMT + 4



Вы не можете начинать темы
Вы не можете отвечать на сообщения
Вы не можете редактировать свои сообщения
Вы не можете удалять свои сообщения
Вы не можете голосовать в опросах
Вы не можете прикреплять файлы к сообщениям
Вы не можете скачивать файлы