Беглец / Running Man / Reonningmaen (Чо Дон О / Jo Dong-Oh) [2013, Южная Корея, комедия, боевик, HDRip] DVO (DeadSno & den904)

Ответить на тему
 
Автор Сообщение

user ®

Стаж: 11 лет

Сообщений: 15151

Пост Пост: #1 от 05-Ноя-2013 18:30

[Цитировать]

Беглец / Running Man / Reonningmaen
Страна: Южная Корея
Жанр: комедия, боевик
Год выпуска: 2013
Продолжительность: 02:07:15
Перевод: Любительский (двухголосый закадровый) [DeadSno & den904]
Cубтитры: нет
Оригинальная аудиодорожка: нет
Режиссер: Чо Дон О / Jo Dong-Oh
В ролях: Чо Ын Джи, Ким Сан Хо, Ли Мин Хо, Син Ха Гюн
Описание: Чха Чжон У четырежды отбывал сроки в тюрьме, сидел за кражи со взломом, угоны автомобилей и сомнительны сделки.
На свободе он стал вести добропорядочную жизнь автомеханика. Он один воспитывает 17-летнего сына, умного, но упрямого и своенравного. Отец и сын не ладят.
Чха Чжон У старается обеспечить сыну лучшую жизнь, поэтому по ночам еще и подрабатывает в такси.
Однажды у роскошного отеля в его машину подсаживается очередной пассажир и просит отвезти в аэропорт.
Простая поездка оборачивается обвинением в убийстве. Чха пускается в бега, пытаясь доказать свою невиновность.
Сэмпл: http://multi-up.com/920287
Качество видео: HDRip [исходник неизвестен]
Формат видео: AVI
Видео: 720x304 (2.37:1), 23.976 fps, XviD build 64 ~2118 kbps avg, 0.40 bit/pixel
Аудио: 48 kHz, AC3 Dolby Digital, 2/0 (L,R) ch, ~192 kbps

MediaInfo

Complete name : Running.Man.2013.avi
Format : AVI
Format/Info : Audio Video Interleave
Format profile : OpenDML
File size : 2.06 GiB
Duration : 2h 7mn
Overall bit rate : 2 317 Kbps
Writing application : VirtualDubMod 1.5.10.3 (build 2550/release)
Writing library : VirtualDubMod build 2550/release
Video
ID : 0
Format : MPEG-4 Visual
Format profile : Advanced Simple@L5
Format settings, BVOP : 2
Format settings, QPel : No
Format settings, GMC : No warppoints
Format settings, Matrix : Custom
Codec ID : XVID
Codec ID/Hint : XviD
Duration : 2h 7mn
Bit rate : 2 113 Kbps
Width : 720 pixels
Height : 304 pixels
Display aspect ratio : 2.35:1
Frame rate : 23.976 fps
Color space : YUV
Chroma subsampling : 4:2:0
Bit depth : 8 bits
Scan type : Progressive
Compression mode : Lossy
Bits/(Pixel*Frame) : 0.403
Stream size : 1.88 GiB (91%)
Writing library : XviD 64
Audio
ID : 1
Format : AC-3
Format/Info : Audio Coding 3
Mode extension : CM (complete main)
Format settings, Endianness : Big
Codec ID : 2000
Duration : 2h 7mn
Bit rate mode : Constant
Bit rate : 192 Kbps
Channel count : 2 channels
Channel positions : Front: L R
Sampling rate : 48.0 KHz
Bit depth : 16 bits
Compression mode : Lossy
Stream size : 175 MiB (8%)
Alignment : Split accross interleaves
Interleave, duration : 42 ms (1.00 video frame)
Interleave, preload duration : 500 ms

Скриншоты

Скачать

Скачать торрент! Беглец / Running Man / Reonningmaen (Чо Дон О / Jo Dong-Oh) [2013, Южная Корея, комедия, боевик, HDRip] DVO (DeadSno & den904)

Как скачивать? · Что такое торрент? · Рейтинг и ограничения

Сайт не распространяет и не хранит электронные версии произведений, а лишь предоставляет доступ к создаваемому пользователями каталогу ссылок на торрент-файлы, которые содержат только списки хеш-сумм

[Профиль] [ЛС]
Показать сообщения:    
Ответить на тему

Текущее время: Сегодня 04:56

Часовой пояс: GMT + 4



Вы не можете начинать темы
Вы не можете отвечать на сообщения
Вы не можете редактировать свои сообщения
Вы не можете удалять свои сообщения
Вы не можете голосовать в опросах
Вы не можете прикреплять файлы к сообщениям
Вы не можете скачивать файлы