Турбо / Turbo (Дэвид Сорен / David Soren) [2013, мультфильм, комедия, приключения, BDRip] Dub + Eng

Ответить на тему
 
Автор Сообщение

user ®

Стаж: 11 лет

Сообщений: 15145

Пост Пост: #1 от 05-Ноя-2013 15:20

[Цитировать]

Турбо / Turbo«Быстрее, еще быстрее!»- Страна: США
Жанр: мультфильм, комедия, приключения, семейный, спорт
Год выпуска: 2013
Продолжительность: 01:35:40
Перевод: Профессиональный (полное дублирование)
Субтитры: Нет-Режиссер: Дэвид Сорен / David Soren-Роли дублировали: Тимур Родригез (Turbo), Саймон (Smoove Move), Юлия Морозова (Burn), Станислав Концевич (Whiplash), Олег Куликович (Skidmark)-Описание: Ничто так не раздражает темпераментную, мечтающую о скорости улитку с говорящим именем Турбо, как неспешная жизнь, медленные разговоры, заторможенные соседи. Пусть наш герой выглядит большим чудаком в этом вялом, неторопливом мире, пусть он идёт вопреки закону природы о «рождённом ползать», но если в сердце горит «пламенный мотор», а душа верит в чудо, оно просто не имеет права не произойти!-Рейтинг:

MPAA - Рекомендуется присутствие родителей-Бюджет: $135 000 000
Сборы в США: $82 807 215
Сборы в России: $14 048 150
Сборы в мире: $269 107 215
Мировая премьера: 17 июля 2013
Релиз на DVD: 21 ноября 2013, «Двадцатый Век Фокс СНГ»
Релиз на Blu-ray: 21 ноября 2013, «Двадцатый Век Фокс СНГ»-Семпл-Качество: BDRip [TURBO_HDCLUB]
Формат: AVI
Видео: 720x304 (2.37:1), 23.976 fps, XviD MPEG-4 ~2359 kbps avg, 0.45 bit/pixel
Аудио: 48 kHz, AC3 Dolby Digital, 3/2 (L,C,R,l,r) + LFE ch, ~448 kbps - Rus
Аудио: 48 kHz, AC3 Dolby Digital, 3/2 (L,C,R,l,r) + LFE ch, ~448 kbps - Eng
Субтитры: Отсутствуют

Знаете ли Вы, что...

  • Во время продакшна на студии Dreamworks был припаркован индикар, чтобы предоставить художникам непосредственный доступ к гоночным автомобилям, задействованным в фильме.

MI

Format : AVIFormat/Info : Audio Video InterleaveFormat profile : OpenDMLFile size : 2.18 GiBDuration : 1h 35mnOverall bit rate : 3 262 KbpsWriting application : VirtualDubMod 1.5.10.3 | www.virtualdub-fr.org || (build 2550/release)Writing library : VirtualDubMod build 2550/release
VideoID : 0Format : MPEG-4 VisualFormat profile : Advanced Simple@L5Format settings, BVOP : 2Format settings, QPel : NoFormat settings, GMC : No warppointsFormat settings, Matrix : CustomCodec ID : XVIDCodec ID/Hint : XviDDuration : 1h 35mnBit rate : 2 349 KbpsWidth : 720 pixelsHeight : 304 pixelsDisplay aspect ratio : 2.35:1Frame rate : 23.976 fpsColor space : YUVChroma subsampling : 4:2:0Bit depth : 8 bitsScan type : ProgressiveCompression mode : LossyBits/(Pixel*Frame) : 0.448Stream size : 1.57 GiB (72%)Writing library : XviD 65
Audio #1ID : 1Format : AC-3Format/Info : Audio Coding 3Mode extension : CM (complete main)Format settings, Endianness : BigCodec ID : 2000Duration : 1h 35mnBit rate mode : ConstantBit rate : 448 KbpsChannel(s) : 6 channelsChannel positions : Front: L C R, Side: L R, LFESampling rate : 48.0 KHzBit depth : 16 bitsCompression mode : LossyStream size : 307 MiB (14%)Alignment : Split accross interleavesInterleave, duration : 42 ms (1.00 video frame)Interleave, preload duration : 500 ms
Audio #2ID : 2Format : AC-3Format/Info : Audio Coding 3Mode extension : CM (complete main)Format settings, Endianness : BigCodec ID : 2000Duration : 1h 35mnBit rate mode : ConstantBit rate : 448 KbpsChannel(s) : 6 channelsChannel positions : Front: L C R, Side: L R, LFESampling rate : 48.0 KHzBit depth : 16 bitsCompression mode : LossyStream size : 307 MiB (14%)Alignment : Split accross interleavesInterleave, duration : 42 ms (1.00 video frame)Interleave, preload duration : 500 ms
-
Скачать

Скачать торрент! Турбо / Turbo (Дэвид Сорен / David Soren) [2013, мультфильм, комедия, приключения, BDRip] Dub + Eng

Как скачивать? · Что такое торрент? · Рейтинг и ограничения

Сайт не распространяет и не хранит электронные версии произведений, а лишь предоставляет доступ к создаваемому пользователями каталогу ссылок на торрент-файлы, которые содержат только списки хеш-сумм

[Профиль] [ЛС]
Показать сообщения:    
Ответить на тему

Текущее время: Сегодня 19:17

Часовой пояс: GMT + 4



Вы не можете начинать темы
Вы не можете отвечать на сообщения
Вы не можете редактировать свои сообщения
Вы не можете удалять свои сообщения
Вы не можете голосовать в опросах
Вы не можете прикреплять файлы к сообщениям
Вы не можете скачивать файлы