Va-банк / Runner Runner (Брэд Фурман / Brad Furman) [2013, США, Триллер, драма, криминал, CAMRip *PROPER*] Dub

Ответить на тему
 
Автор Сообщение

user ®

Стаж: 7 лет 7 месяцев

Сообщений: 20008

Пост Пост: #1 от 05-Ноя-2013 15:20

[Цитировать]

Va-банк / Runner Runner-«Игра стоит свеч»- -Страна: США
Студии: Appian Way, Double Feature Films, New Regency Pictures, Paragon Studios, Stone Village Productions
Жанр: Триллер, драма, криминал
Год выпуска: 2013
Продолжительность: 01:25:25-Перевод: Профессиональный (дублированный)
Cубтитры: нет
Режиссер: Брэд Фурман / Brad Furman-В ролях: Джастин Тимберлэйк, Бен Аффлек, Джемма Артертон, Энтони Маки, Майкл Эспер, Оливер Купер, Кристиан Джордж, Юл Васкез, Джон Хёрд, Джеймс Молина-Описание: Чтобы оплачивать учебу в колледже, Ричи погружается в мир азартных игр он-лайн. Когда удача изменяет ему, он отправляется на Коста-Рику, чтобы помериться силами с настоящим асом игрового бизнеса. Тот видит в Ричи родственную душу и вводит его в свою игру. Но когда степень опасности возрастает, а ставки достигают невероятных высот, Ричи вдруг отчетливо понимает, что его новый босс вот-вот совершит непоправимое, и пытается поменяться с ним ролями.- -Сэмпл: http://multi-up.com/918296-Качество видео: CAMRip *PROPER*
Формат видео: AVI
Видео: 720x338 (2.13:1), 29.970 fps, XviD MPEG-4 ~2137 kbps avg, 0.29 bit/pixel
Аудио: 48 kHz, MPEG Layer 3, 2 ch, ~128.00 kbps avg-Примечание: Отсутствует около 3-х минут перевода!-

MediaInfo

General
Complete name : E:\Новинки\Va.bank.2013.D.CAMRip.PROPER.1400MB.avi
Format : AVI
Format/Info : Audio Video Interleave
File size : 1.36 GiB
Duration : 1h 25mn
Overall bit rate : 2 277 Kbps
Writing application : VirtualDubMod 1.5.10.2 (build 2542/release)
Writing library : VirtualDubMod build 2542/release
Video
ID : 0
Format : MPEG-4 Visual
Format profile : Advanced Simple@L5
Format settings, BVOP : 2
Format settings, QPel : No
Format settings, GMC : No warppoints
Format settings, Matrix : Default (H.263)
Muxing mode : Packed bitstream
Codec ID : XVID
Codec ID/Hint : XviD
Duration : 1h 25mn
Bit rate : 2 137 Kbps
Width : 720 pixels
Height : 338 pixels
Display aspect ratio : 2.130
Frame rate : 29.970 fps
Color space : YUV
Chroma subsampling : 4:2:0
Bit depth : 8 bits
Scan type : Progressive
Compression mode : Lossy
Bits/(Pixel*Frame) : 0.293
Stream size : 1.28 GiB (94%)
Writing library : XviD 64
Audio
ID : 1
Format : MPEG Audio
Format version : Version 1
Format profile : Layer 3
Mode : Joint stereo
Codec ID : 55
Codec ID/Hint : MP3
Duration : 1h 25mn
Bit rate mode : Constant
Bit rate : 128 Kbps
Channel count : 2 channels
Sampling rate : 48.0 KHz
Compression mode : Lossy
Stream size : 78.2 MiB (6%)
Alignment : Aligned on interleaves
Interleave, duration : 33 ms (1.00 video frame)
Interleave, preload duration : 504 ms

Скриншот с названием фильма

Скриншоты

Сравнения скриншотов

Stryker76(720x338 | 1.36 GB) vs Fakel-V(720x336 | 1.37 GB)



-
Скачать

Скачать торрент!

Как скачивать? · Что такое торрент? · Рейтинг и ограничения

Сайт не распространяет и не хранит электронные версии произведений, а лишь предоставляет доступ к создаваемому пользователями каталогу ссылок на торрент-файлы, которые содержат только списки хеш-сумм

[Профиль] [ЛС]
Показать сообщения:    
Ответить на тему

Текущее время: Сегодня 06:08

Часовой пояс: GMT + 4



Вы не можете начинать темы
Вы не можете отвечать на сообщения
Вы не можете редактировать свои сообщения
Вы не можете удалять свои сообщения
Вы не можете голосовать в опросах
Вы не можете прикреплять файлы к сообщениям
Вы не можете скачивать файлы