Американский жиголо / American Gigolo (Пол Шредер / Paul Schrader) [1980, США, триллер, драма, криминал, BDRip 720p] 2х MVO + Original (Eng) + Subs (Rus, Eng)

Ответить на тему
 
Автор Сообщение

user ®

Стаж: 7 лет 7 месяцев

Сообщений: 20008

Пост Пост: #1 от 05-Ноя-2013 04:25

[Цитировать]

Американский жиголоAmerican Gigolo«Его работа - дарить наслаждение»- Страна: США
Жанр: триллер, драма, криминал
Год выпуска: 1980
Продолжительность: 01:56:35-Перевод 1: Профессиональный (многоголосый, закадровый)
Перевод 2: Профессиональный (многоголосый, закадровый) [СТС]
Оригинальная аудиодорожка: английский
Субтитры: русские, английские
Режиссер: Пол Шредер / Paul Schrader
В ролях: Ричард Гир, Лорен Хаттон, Гектор Элизондо, Нина Ван Палландт, Билл Дьюк, Брайан Дейвис, К Кэллан, Том Стюарт, Патриция Карр, Дэвид Крайер, Кэрол Кук, Кэрол Брюс-Описание: Второго такого не найти! Джулиан Кэй - единственный и неповторимый! Он легко изъясняется на шести языках. Он - изысканный, начитанный собеседник. Он - чувственен и интеллигентен. Он безмерно элегантен и немыслимо привлекателен. Ни одна женщина не в силах устоять перед его чарами. Что, в сущности, и требуется Джулиану для его повседневной работы, так как он - профессиональный соблазнитель.
Причем - самый высокооплачиваемый в Голливуде. Его сердце защищено ледяным панцирем от лишних нежных чувств, которые внезапно могут возникнуть на службе или вне ее - работе не должно мешать ничто! Казалось бы, в жизни прекрасного жиголо все будет прекрасно. Но вот одну из клиенток Джулиана находят мертвой, а самого его начинают подозревать в убийстве.-


MPAA: R - Лицам до 17 лет обязательно присутствие взрослого-

Доп. Информация

Сценарий: Пол Шредер / Paul Schrader
Продюсер: Джерри Брукхаймер / Jerry Bruckheimer, Фредди Филдс / Freddie Fields
Оператор: Джон Бэйли / John Bailey
Композитор: Джорджо Мородер / Giorgio Moroder
Бюджет: $4 800 000
Сборы в США: $22 743 674
Мировая премьера: 1 февраля 1980
Релиз на DVD: 25 января 2011,
«Юниверсал Пикчерс Рус»
Рип от андр64. За исходник спасибо: delo2006-Качество: BDRip 720p (Исходник BD Remux)
Контейнер: MKV
Видео: AVC, 1280x720 (16:9), 8453 kbps, 23,976 fps, 0,383 bpp
Аудио №1: русский / AC3 / 5.1 / 48 kHz / 448 kbps / 16 bit ||
Аудио №2: русский / AC3 / 2.0 / 48 kHz / 192 kbps / 16 bit || СТС
Аудио №3: английский / DTS / 5.1 / 48 kHz / 1510 kbps / 24 bit
Формат субтитров: русские (Full), английские (Full)
Навигация по главам: есть-

Знаете ли Вы, что...

  • Изначально роль Джулиана была предложена Джону Траволте, но после того, как он отказался, отошла Ричарду Гиру. Узнав о том, что Траволта не будет участвовать в проекте, актриса Джули Кристи отказалась играть Мишель Страттон, и ее заменила Лорен Хаттон.
  • Кристофер Рив отклонил предложение сняться в фильме вместе с большим для того времени миллионным гонораром.
  • Главная женская роль предлагалась Мэрил Стрип, но уже тогда известная актриса отказалась, посчитав неподходящей общую тональность материала.
  • Художником-постановщиком фильма от начала и до конца был Фердинандо Скарфиотти. Однако по жёстким правилам Гильдии художников-постановщиков он на тот момент не мог быть её членом. Из-за этого в титрах фильма он указан в качестве консультанта по визуальной части.
  • еще 1 факт

Media Info

General
Unique ID : 254751624287851919901737268857252930797 (0xBFA760CF13681D1CB595F32532D8E4ED)
Complete name : G:\American.Gigolo.1980.BDRip.720p.mkv
Format : Matroska
Format version : Version 2
File size : 8.81 GiB
Duration : 1h 56mn
Overall bit rate : 10.8 Mbps
Encoded date : UTC 2013-11-03 20:09:36
Writing application : mkvmerge v5.8.0 ('No Sleep / Pillow') built on Sep 2 2012 15:37:04
Writing library : libebml v1.2.3 + libmatroska v1.3.0
Video
ID : 1
Format : AVC
Format/Info : Advanced Video Codec
Format profile : High@L4.1
Format settings, CABAC : Yes
Format settings, ReFrames : 9 frames
Codec ID : V_MPEG4/ISO/AVC
Duration : 1h 56mn
Bit rate : 8 454 Kbps
Width : 1 280 pixels
Height : 720 pixels
Display aspect ratio : 16:9
Frame rate : 23.976 fps
Color space : YUV
Chroma subsampling : 4:2:0
Bit depth : 8 bits
Scan type : Progressive
Bits/(Pixel*Frame) : 0.383
Stream size : 6.89 GiB (78%)
Writing library : x264 core 138 r2358 9e941d1
Encoding settings : cabac=1 / ref=9 / deblock=1:-1:-1 / analyse=0x3:0x113 / me=umh / subme=10 / psy=1 / psy_rd=1.00:0.15 / mixed_ref=1 / me_range=48 / chroma_me=1 / trellis=2 / 8x8dct=1 / cqm=0 / deadzone=21,11 / fast_pskip=1 / chroma_qp_offset=-3 / threads=12 / lookahead_threads=3 / sliced_threads=0 / nr=0 / decimate=1 / interlaced=0 / bluray_compat=0 / constrained_intra=0 / bframes=10 / b_pyramid=2 / b_adapt=2 / b_bias=0 / direct=3 / weightb=1 / open_gop=0 / weightp=2 / keyint=250 / keyint_min=24 / scenecut=40 / intra_refresh=0 / rc_lookahead=40 / rc=crf / mbtree=0 / crf=19.0 / qcomp=0.60 / qpmin=10 / qpmax=51 / qpstep=4 / vbv_maxrate=50000 / vbv_bufsize=62500 / crf_max=0.0 / nal_hrd=none / ip_ratio=1.40 / pb_ratio=1.30 / aq=2:1.00
Language : English
Default : Yes
Forced : No
Audio #1
ID : 2
Format : AC-3
Format/Info : Audio Coding 3
Mode extension : CM (complete main)
Codec ID : A_AC3
Duration : 1h 56mn
Bit rate mode : Constant
Bit rate : 448 Kbps
Channel(s) : 6 channels
Channel positions : Front: L C R, Side: L R, LFE
Sampling rate : 48.0 KHz
Bit depth : 16 bits
Compression mode : Lossy
Stream size : 374 MiB (4%)
Title : закадровый (многоголосый)
Language : Russian
Default : Yes
Forced : No
Audio #2
ID : 3
Format : AC-3
Format/Info : Audio Coding 3
Mode extension : CM (complete main)
Codec ID : A_AC3
Duration : 1h 56mn
Bit rate mode : Constant
Bit rate : 192 Kbps
Channel(s) : 2 channels
Channel positions : Front: L R
Sampling rate : 48.0 KHz
Bit depth : 16 bits
Compression mode : Lossy
Stream size : 160 MiB (2%)
Title : закадровый (многоголосый, СТС)
Language : Russian
Default : No
Forced : No
Audio #3
ID : 4
Format : DTS
Format/Info : Digital Theater Systems
Codec ID : A_DTS
Duration : 1h 56mn
Bit rate mode : Constant
Bit rate : 1 510 Kbps
Channel(s) : 6 channels
Channel positions : Front: L C R, Side: L R, LFE
Sampling rate : 48.0 KHz
Bit depth : 24 bits
Compression mode : Lossy
Stream size : 1.23 GiB (14%)
Title : English
Language : English
Default : No
Forced : No
Text #1
ID : 5
Format : UTF-8
Codec ID : S_TEXT/UTF8
Codec ID/Info : UTF-8 Plain Text
Language : Russian
Default : No
Forced : No
Text #2
ID : 6
Format : UTF-8
Codec ID : S_TEXT/UTF8
Codec ID/Info : UTF-8 Plain Text
Language : English
Default : No
Forced : No
Menu
00:00:00.000 : :Chapter 01
00:03:26.248 : :Chapter 02
00:10:36.426 : :Chapter 03
00:16:37.496 : :Chapter 04
00:21:18.109 : :Chapter 05
00:23:46.300 : :Chapter 06
00:26:16.949 : :Chapter 07
00:32:35.911 : :Chapter 08
00:34:53.091 : :Chapter 09
00:40:36.184 : :Chapter 10
00:45:26.766 : :Chapter 11
00:52:42.534 : :Chapter 12
00:58:19.912 : :Chapter 13
01:01:34.316 : :Chapter 14
01:05:09.363 : :Chapter 15
01:10:06.786 : :Chapter 16
01:12:39.604 : :Chapter 17
01:15:22.977 : :Chapter 18
01:19:53.956 : :Chapter 19
01:24:15.841 : :Chapter 20
01:27:09.224 : :Chapter 21
01:30:25.170 : :Chapter 22
01:32:39.554 : :Chapter 23
01:35:10.455 : :Chapter 24
01:40:28.898 : :Chapter 25
01:47:07.713 : :Chapter 26
01:51:43.322 : :Chapter 27

х264

x264 [info]: frame I:890 Avg QP:18.57 size:132577
x264 [info]: frame P:31211 Avg QP:19.82 size: 74037
x264 [info]: frame B:135635 Avg QP:21.87 size: 37973
x264 [info]: consecutive B-frames: 0.8% 0.6% 1.6% 15.7% 9.5% 64.0% 3.5% 3.5% 0.4% 0.2% 0.2%
x264 [info]: mb I I16..4: 11.1% 77.7% 11.2%
x264 [info]: mb P I16..4: 1.5% 27.9% 1.5% P16..4: 28.9% 25.3% 12.5% 0.0% 0.0% skip: 2.4%
x264 [info]: mb B I16..4: 0.1% 4.8% 0.1% B16..8: 40.4% 12.6% 4.0% direct:17.9% skip:20.1% L0:44.6% L1:42.5% BI:12.9%
x264 [info]: 8x8 transform intra:92.3% inter:58.2%
x264 [info]: direct mvs spatial:100.0% temporal:0.0%
x264 [info]: coded y,uvDC,uvAC intra: 99.1% 93.4% 75.5% inter: 57.0% 47.9% 11.1%
x264 [info]: i16 v,h,dc,p: 7% 3% 43% 47%
x264 [info]: i8 v,h,dc,ddl,ddr,vr,hd,vl,hu: 7% 9% 15% 8% 12% 9% 14% 9% 16%
x264 [info]: i4 v,h,dc,ddl,ddr,vr,hd,vl,hu: 5% 8% 5% 9% 15% 11% 17% 10% 18%
x264 [info]: i8c dc,h,v,p: 51% 18% 16% 15%
x264 [info]: Weighted P-Frames: Y:9.3% UV:4.3%
x264 [info]: ref P L0: 33.4% 10.0% 19.8% 9.1% 8.3% 6.1% 5.9% 3.5% 3.6% 0.4% 0.0%
x264 [info]: ref B L0: 70.0% 12.0% 6.5% 3.8% 2.9% 2.5% 1.5% 0.7%
x264 [info]: ref B L1: 93.2% 6.8%
x264 [info]: kb/s:8666.88

Скриншоты

Скачать

Скачать торрент!

Как скачивать? · Что такое торрент? · Рейтинг и ограничения

Сайт не распространяет и не хранит электронные версии произведений, а лишь предоставляет доступ к создаваемому пользователями каталогу ссылок на торрент-файлы, которые содержат только списки хеш-сумм

[Профиль] [ЛС]
Показать сообщения:    
Ответить на тему

Текущее время: Сегодня 22:15

Часовой пояс: GMT + 4



Вы не можете начинать темы
Вы не можете отвечать на сообщения
Вы не можете редактировать свои сообщения
Вы не можете удалять свои сообщения
Вы не можете голосовать в опросах
Вы не можете прикреплять файлы к сообщениям
Вы не можете скачивать файлы