Папаша / Starbuck (Кен Скотт / Ken Scott) [2011, Канада, драма, комедия, BDRip 720p] MVO (R5) + Original (Fre) + Subs (Rus, Eng)

Ответить на тему
 
Автор Сообщение

user ®

Стаж: 7 лет 7 месяцев

Сообщений: 20008

Пост Пост: #1 от 05-Ноя-2013 01:20

[Цитировать]

Папаша / Starbuck

-
-Страна: Канада
Студия: Caramel Film
Жанр: драма, комедия
Год выпуска: 2011
Продолжительность: 01:49:00--Перевод: Профессиональный (многоголосый закадровый) R5
Cубтитры: русские (R5; Groby), английские
Оригинальная аудиодорожка: французский--Режиссер: Кен Скотт / Ken Scott
В ролях: Патрик Уард, Жюли ЛеБретон, Антуан Бертран, Доминик Фили, Марк Беланже, Игорь Овадис, Давид Микаэль, Патрик Мартин, Давид Жигер, Сара-Джинн Лабросс--Описание: Фильм рассказывает о Дэвиде Возняке, бездельнике среднего возраста, которому сообщили, что сперма, которую он когда-то сдавал за деньги, произвела на свет ровно 533 ребенка. И большая часть из них подают в суд на клинику, чтобы узнать, кто их отец?!--imdb | kinopoisk | Сэмпл--Тип релиза: BDRip 720p [Starbuck 2011 720p BluRay DD5.1 x264-CRiSC]
Контейнер: MKV
Видео: MPEG-4 AVC / 5587 kbps / 1280x546 / 23,976 fps / 2,35:1 / High Profile 4.1
Аудио 1: Russian AC3 / 5.1 / 48 kHz / 448 kbps / 16 bits |MVO, R5|
Аудио 2: French AC3 / 5.1 / 48 kHz / 640 kbps / 16 bits |original|
Формат субтитров: softsub [SRT]

MediaInfo

Общее
Уникальный идентификатор                 : 233666177711101869585735772523436286357 (0xAFCA78077FD9DDDBB8B07DDF8C8DA195)
Полное имя                               : G:\HD\Папаша.2011.BDRip.(720p).mkv
Формат                                   : Matroska
Версия формата                           : Version 2
Размер файла                             : 5,19 Гбайт
Продолжительность                        : 1 ч. 49 м.
Общий поток                              : 6811 Кбит/сек
Дата кодирования                         : UTC 2013-11-04 10:44:44
Программа кодирования                    : mkvmerge v5.8.0 ('No Sleep / Pillow') built on Sep  2 2012 15:37:04
Библиотека кодирования                   : libebml v1.2.3 + libmatroska v1.3.0
Attachment                               : Yes
Видео
Идентификатор                            : 1
Формат                                   : AVC
Формат/Информация                        : Advanced Video Codec
Профиль формата                          : High@L4.1
Параметр CABAC формата                   : Да
Параметр ReFrames формата                : 11 кадров
Идентификатор кодека                     : V_MPEG4/ISO/AVC
Продолжительность                        : 1 ч. 49 м.
Битрейт                                  : 5587 Кбит/сек
Ширина                                   : 1280 пикселей
Высота                                   : 546 пикселей
Соотношение сторон                       : 2,35:1
Режим частоты кадров                     : Постоянный
Частота кадров                           : 23,976 кадра/сек
Цветовое пространство                    : YUV
Субдискретизация насыщенности            : 4:2:0
Битовая глубина                          : 8 бит
Тип развёртки                            : Прогрессивная
Бит/(Пиксели*Кадры)                      : 0.333
Размер потока                            : 4,25 Гбайт (82%)
Заголовок                                : Starbuck 2011 720p BluRay DD5.1 x264-CRiSC
Библиотека кодирования                   : x264 core 129 r2230 1cffe9f
Настройки программы                      : cabac=1 / ref=11 / deblock=1:-3:-3 / analyse=0x3:0x133 / me=tesa / subme=11 / psy=1 / psy_rd=1.00:0.00 / mixed_ref=1 / me_range=24 / chroma_me=1 / trellis=2 / 8x8dct=1 / cqm=0 / deadzone=21,11 / fast_pskip=0 / chroma_qp_offset=-2 / threads=12 / lookahead_threads=2 / sliced_threads=0 / nr=0 / decimate=0 / interlaced=0 / bluray_compat=0 / constrained_intra=0 / bframes=9 / b_pyramid=2 / b_adapt=2 / b_bias=0 / direct=1 / weightb=1 / open_gop=0 / weightp=2 / keyint=250 / keyint_min=23 / scenecut=40 / intra_refresh=0 / rc_lookahead=40 / rc=crf / mbtree=0 / crf=17.3 / qcomp=0.65 / qpmin=0 / qpmax=69 / qpstep=4 / vbv_maxrate=50000 / vbv_bufsize=62500 / crf_max=0.0 / nal_hrd=none / ip_ratio=1.40 / pb_ratio=1.30 / aq=1:1.00
Язык                                     : French
Default                                  : Да
Forced                                   : Нет
Основные цвета                           : BT.709
Характеристики трансфера                 : BT.709
Коэффициенты матрицы                     : BT.709
Аудио #1
Идентификатор                            : 2
Формат                                   : AC-3
Формат/Информация                        : Audio Coding 3
Расширение режима                        : CM (complete main)
Параметр Endianness формата              : Big
Идентификатор кодека                     : A_AC3
Продолжительность                        : 1 ч. 49 м.
Вид битрейта                             : Постоянный
Битрейт                                  : 448 Кбит/сек
Каналы                                   : 6 каналов
Расположение каналов                     : Front: L C R, Side: L R, LFE
Частота                                  : 48,0 КГц
Битовая глубина                          : 16 бит
Метод сжатия                             : С потерями
Размер потока                            : 349 Мбайт (7%)
Заголовок                                : MVO, R5
Язык                                     : Russian
Default                                  : Да
Forced                                   : Нет
Аудио #2
Идентификатор                            : 3
Формат                                   : AC-3
Формат/Информация                        : Audio Coding 3
Расширение режима                        : CM (complete main)
Параметр Endianness формата              : Big
Идентификатор кодека                     : A_AC3
Продолжительность                        : 1 ч. 49 м.
Вид битрейта                             : Постоянный
Битрейт                                  : 640 Кбит/сек
Каналы                                   : 6 каналов
Расположение каналов                     : Front: L C R, Side: L R, LFE
Частота                                  : 48,0 КГц
Битовая глубина                          : 16 бит
Метод сжатия                             : С потерями
Размер потока                            : 499 Мбайт (9%)
Язык                                     : French
Default                                  : Нет
Forced                                   : Нет
Текст #1
Идентификатор                            : 4
Формат                                   : UTF-8
Идентификатор кодека                     : S_TEXT/UTF8
Идентификатор кодека/Информация          : UTF-8 Plain Text
Заголовок                                : R5
Язык                                     : Russian
Default                                  : Нет
Forced                                   : Нет
Текст #2
Идентификатор                            : 5
Формат                                   : UTF-8
Идентификатор кодека                     : S_TEXT/UTF8
Идентификатор кодека/Информация          : UTF-8 Plain Text
Заголовок                                : Groby
Язык                                     : Russian
Default                                  : Нет
Forced                                   : Нет
Текст #3
Идентификатор                            : 6
Формат                                   : UTF-8
Идентификатор кодека                     : S_TEXT/UTF8
Идентификатор кодека/Информация          : UTF-8 Plain Text
Язык                                     : English
Default                                  : Нет
Forced                                   : Нет
Меню
00:00:00.000                             : :Chapter 01
00:04:19.550                             : :Chapter 02
00:13:14.960                             : :Chapter 03
00:18:40.410                             : :Chapter 04
00:27:33.777                             : :Chapter 05
00:34:49.587                             : :Chapter 06
00:40:33.973                             : :Chapter 07
00:43:54.465                             : :Chapter 08
00:47:20.546                             : :Chapter 09
00:55:40.420                             : :Chapter 10
01:06:06.754                             : :Chapter 11
01:12:48.655                             : :Chapter 12
01:19:30.015                             : :Chapter 13
01:28:11.035                             : :Chapter 14
01:34:08.267                             : :Chapter 15
01:44:47.489                             : :Chapter 16

Скриншоты


Скачать

Скачать торрент!

Как скачивать? · Что такое торрент? · Рейтинг и ограничения

Сайт не распространяет и не хранит электронные версии произведений, а лишь предоставляет доступ к создаваемому пользователями каталогу ссылок на торрент-файлы, которые содержат только списки хеш-сумм

[Профиль] [ЛС]
Показать сообщения:    
Ответить на тему

Текущее время: Сегодня 22:41

Часовой пояс: GMT + 4



Вы не можете начинать темы
Вы не можете отвечать на сообщения
Вы не можете редактировать свои сообщения
Вы не можете удалять свои сообщения
Вы не можете голосовать в опросах
Вы не можете прикреплять файлы к сообщениям
Вы не можете скачивать файлы