Лавлэйс / Lovelace (Роб Эпштейн, Джеффри Фридман / Rob Epstein, Jeffrey Friedman) [2013, США, драма, биография, BDRip 720p] Dub (R5) + Original (Eng) + Subs (Rus, Eng)

Ответить на тему
 
Автор Сообщение

user ®

Стаж: 7 лет 7 месяцев

Сообщений: 20008

Пост Пост: #1 от 05-Ноя-2013 01:20

[Цитировать]

Лавлэйс / Lovelace

-
-Страна: США
Студия: Animus Films, Eclectic Pictures Inc., Millennium Films, Untitled Entertainment
Жанр: драма, биография
Год выпуска: 2013
Продолжительность: 01:32:48--Перевод: Профессиональный (дублированный) R5
Cубтитры: русские (jerichOne), английские SDH
Оригинальная аудиодорожка: английский--Режиссер: Роб Эпштейн / Rob Epstein, Джеффри Фридман / Jeffrey Friedman
В ролях: Аманда Сайфред, Питер Сарсгаард, Роберт Патрик, Шэрон Стоун, Джуно Темпл, Адам Броди, Бобби Каннавале, Крис Нот, Эрик Робертс, Джеймс Франко--Описание: Биография самой известной порноактрисы Линды Лавлейс. Чтобы заработать подобную славу, ей нужно было сыграть только в одном фильме — «Глубокая глотка». Всю свою жизнь после этого она посвятила борьбе за права женщин.--imdb | kinopoisk | Сэмпл--Тип релиза: BDRip 720p [Lovelace 2013 720p BluRay DD5.1 x264-CtrlHD]
Контейнер: MKV
Видео: MPEG-4 AVC / 11,6 Mbps / 1280x694 / 23,976 fps / 1,85:1 / High Profile 4.1
Аудио 1: Russian AC3 / 5.1 / 48 kHz / 384 kbps / 16 bits |Dub, R5|
Аудио 2: English AC3 / 5.1 / 48 kHz / 640 kbps / 16 bits |original|
Формат субтитров: softsub [SRT]

MediaInfo

Общее
Уникальный идентификатор                 : 239349554252300021368897309431629690400 (0xB4110C2081E7A95B8CD9A195F4C53620)
Полное имя                               : G:\HD\Лавлэйс.2013.BDRip.(720p).mkv
Формат                                   : Matroska
Версия формата                           : Version 2
Размер файла                             : 8,18 Гбайт
Продолжительность                        : 1 ч. 32 м.
Общий поток                              : 12,6 Мбит/сек
Дата кодирования                         : UTC 2013-11-04 17:14:11
Программа кодирования                    : mkvmerge v5.8.0 ('No Sleep / Pillow') built on Sep  2 2012 15:37:04
Библиотека кодирования                   : libebml v1.2.3 + libmatroska v1.3.0
Attachment                               : Yes
Видео
Идентификатор                            : 1
Формат                                   : AVC
Формат/Информация                        : Advanced Video Codec
Профиль формата                          : High@L4.1
Параметр CABAC формата                   : Да
Параметр ReFrames формата                : 9 кадров
Идентификатор кодека                     : V_MPEG4/ISO/AVC
Продолжительность                        : 1 ч. 32 м.
Битрейт                                  : 11,6 Мбит/сек
Ширина                                   : 1280 пикселей
Высота                                   : 694 пикселя
Соотношение сторон                       : 1,85:1
Режим частоты кадров                     : Постоянный
Частота кадров                           : 23,976 кадра/сек
Цветовое пространство                    : YUV
Субдискретизация насыщенности            : 4:2:0
Битовая глубина                          : 8 бит
Тип развёртки                            : Прогрессивная
Бит/(Пиксели*Кадры)                      : 0.546
Размер потока                            : 7,36 Гбайт (90%)
Заголовок                                : Lovelace 2013 720p BluRay DD5.1 x264-CtrlHD
Библиотека кодирования                   : x264 core 138 r2358kMod 9e941d1
Настройки программы                      : cabac=1 / ref=9 / deblock=1:-3:-3 / analyse=0x3:0x113 / me=umh / subme=10 / psy=1 / fade_compensate=0.00 / psy_rd=1.15:0.00 / mixed_ref=1 / me_range=16 / chroma_me=1 / trellis=2 / 8x8dct=1 / cqm=0 / deadzone=21,11 / fast_pskip=0 / chroma_qp_offset=-2 / threads=6 / lookahead_threads=1 / sliced_threads=0 / nr=0 / decimate=0 / interlaced=0 / bluray_compat=0 / constrained_intra=0 / bframes=8 / b_pyramid=2 / b_adapt=2 / b_bias=0 / direct=3 / weightb=1 / open_gop=0 / weightp=2 / keyint=250 / keyint_min=23 / scenecut=40 / intra_refresh=0 / rc_lookahead=60 / rc=2pass / mbtree=0 / bitrate=11620 / ratetol=1.0 / qcomp=0.70 / qpmin=0 / qpmax=69 / qpstep=4 / cplxblur=20.0 / qblur=0.5 / vbv_maxrate=20000 / vbv_bufsize=15000 / nal_hrd=none / ip_ratio=1.20 / pb_ratio=1.10 / aq=1:0.50
Язык                                     : English
Default                                  : Да
Forced                                   : Нет
Аудио #1
Идентификатор                            : 2
Формат                                   : AC-3
Формат/Информация                        : Audio Coding 3
Расширение режима                        : CM (complete main)
Параметр Endianness формата              : Big
Идентификатор кодека                     : A_AC3
Продолжительность                        : 1 ч. 32 м.
Вид битрейта                             : Постоянный
Битрейт                                  : 384 Кбит/сек
Каналы                                   : 6 каналов
Расположение каналов                     : Front: L C R, Side: L R, LFE
Частота                                  : 48,0 КГц
Битовая глубина                          : 16 бит
Метод сжатия                             : С потерями
Размер потока                            : 255 Мбайт (3%)
Заголовок                                : Dub, R5
Язык                                     : Russian
Default                                  : Да
Forced                                   : Нет
Аудио #2
Идентификатор                            : 3
Формат                                   : AC-3
Формат/Информация                        : Audio Coding 3
Расширение режима                        : CM (complete main)
Параметр Endianness формата              : Big
Идентификатор кодека                     : A_AC3
Продолжительность                        : 1 ч. 32 м.
Вид битрейта                             : Постоянный
Битрейт                                  : 640 Кбит/сек
Каналы                                   : 6 каналов
Расположение каналов                     : Front: L C R, Side: L R, LFE
Частота                                  : 48,0 КГц
Битовая глубина                          : 16 бит
Метод сжатия                             : С потерями
Размер потока                            : 425 Мбайт (5%)
Язык                                     : English
Default                                  : Нет
Forced                                   : Нет
Текст #1
Идентификатор                            : 4
Формат                                   : UTF-8
Идентификатор кодека                     : S_TEXT/UTF8
Идентификатор кодека/Информация          : UTF-8 Plain Text
Заголовок                                : jerichOne
Язык                                     : Russian
Default                                  : Нет
Forced                                   : Нет
Текст #2
Идентификатор                            : 5
Формат                                   : UTF-8
Идентификатор кодека                     : S_TEXT/UTF8
Идентификатор кодека/Информация          : UTF-8 Plain Text
Заголовок                                : SDH
Язык                                     : English
Default                                  : Нет
Forced                                   : Нет
Меню
00:00:00.000                             : :Chapter 01
00:07:01.129                             : :Chapter 02
00:14:09.056                             : :Chapter 03
00:19:23.620                             : :Chapter 04
00:25:14.471                             : :Chapter 05
00:30:04.761                             : :Chapter 06
00:38:55.124                             : :Chapter 07
00:45:05.703                             : :Chapter 08
00:51:05.062                             : :Chapter 09
00:57:02.627                             : :Chapter 10
01:03:56.123                             : :Chapter 11
01:11:08.764                             : :Chapter 12
01:19:39.691                             : :Chapter 13
01:25:55.900                             : :Chapter 14

Скриншоты


Скачать

Скачать торрент!

Как скачивать? · Что такое торрент? · Рейтинг и ограничения

Сайт не распространяет и не хранит электронные версии произведений, а лишь предоставляет доступ к создаваемому пользователями каталогу ссылок на торрент-файлы, которые содержат только списки хеш-сумм

[Профиль] [ЛС]
Показать сообщения:    
Ответить на тему

Текущее время: Сегодня 10:11

Часовой пояс: GMT + 4



Вы не можете начинать темы
Вы не можете отвечать на сообщения
Вы не можете редактировать свои сообщения
Вы не можете удалять свои сообщения
Вы не можете голосовать в опросах
Вы не можете прикреплять файлы к сообщениям
Вы не можете скачивать файлы