Ночной клуб в Гонконге / Hong Kong Night Club (Такаёши Ватанабе / Takayoshi Watanabe) [1997, Япония, комедия, боевик, гей-тема, DVDRip] Sub Rus

Ответить на тему
 
Автор Сообщение

user ®

Стаж: 11 лет

Сообщений: 15151

Пост Пост: #1 от 04-Ноя-2013 17:00

[Цитировать]

Ночной клуб в Гонконге / Hong Kong Night Club
Страна: Япония
Жанр: комедия, боевик, гей-тема
Год выпуска: 1997
Продолжительность: 01:52:01
Перевод: Субтитры
Cубтитры: русские
Оригинальная аудиодорожка: японская
Режиссер: Такаёши Ватанабе / Takayoshi Watanabe
В ролях: Катори Шинго, Кишитани Горо, Анита Юэн
Описание: Журналист Татегами оправился вместе с напарником, фотографом Шибатой, в Гонконг. Там они попали в переделку и вынуждены были скрываться. Лучшая маскировка — изобразить супругов, поэтому Шибате, как молодому и красивому, пришлось притвориться женщиной. Дело осложнилось любовным треугольником: Татегами влюблен в Шибату, тот (будучи в образе танцовщицы Мэгги) влюбился в певицу Кору, которая, в свою очередь, влюбилась в Татегами, не зная, что тот — гей.
Доп. информация: Присутствуют вшитые английские субтитры, переводчик неизвестен.
Перевод на русский: ladyxenax & Эйнэри
Сэмпл: http://multi-up.com/920004
Качество видео: DVDRip
Формат видео: AVI
Видео: DivX 5 656x400 23.98fps 1619kbps
Аудио: MPEG Audio Layer 3 48000Hz stereo 115kbps
Формат субтитров: softsub (SRT)

MediaInfo

General
Complete name : D:\Media\Downloads\Torrents\Hong Kong Night Club\Hong Kong Night Club.avi
Format : AVI
Format/Info : Audio Video Interleave
File size : 1.37 GiB
Duration : 1h 52mn
Overall bit rate : 1 748 Kbps
Writing application : VirtualDubMod 1.5.4.1 (build 2178/release)
Writing library : VirtualDubMod build 2178/release
Video
ID : 0
Format : MPEG-4 Visual
Format settings, BVOP : 1
Format settings, QPel : No
Format settings, GMC : No warppoints
Format settings, Matrix : Default (H.263)
Muxing mode : Packed bitstream
Codec ID : DX50
Codec ID/Hint : DivX 5
Duration : 1h 52mn
Bit rate : 1 620 Kbps
Width : 656 pixels
Height : 400 pixels
Display aspect ratio : 1.640
Frame rate : 23.976 fps
Color space : YUV
Chroma subsampling : 4:2:0
Bit depth : 8 bits
Scan type : Progressive
Compression mode : Lossy
Bits/(Pixel*Frame) : 0.257
Stream size : 1.27 GiB (93%)
Writing library : DivX 6.8.5 (UTC 2009-08-20)
Audio
ID : 1
Format : MPEG Audio
Format version : Version 1
Format profile : Layer 3
Mode : Joint stereo
Codec ID : 55
Codec ID/Hint : MP3
Duration : 1h 52mn
Bit rate mode : Variable
Bit rate : 115 Kbps
Nominal bit rate : 128 Kbps
Channel(s) : 2 channels
Sampling rate : 48.0 KHz
Compression mode : Lossy
Stream size : 92.4 MiB (7%)
Alignment : Aligned on interleaves
Interleave, duration : 24 ms (0.58 video frame)
Interleave, preload duration : 539 ms
Writing library : LAME3.97
Encoding settings : -m j -V 4 -q 2 -lowpass 17 --abr 128
Language : Chinese

Скриншот c названием фильма

Скриншоты

Скачать

Скачать торрент! Ночной клуб в Гонконге / Hong Kong Night Club (Такаёши Ватанабе / Takayoshi Watanabe) [1997, Япония, комедия, боевик, гей-тема, DVDRip] Sub Rus

Как скачивать? · Что такое торрент? · Рейтинг и ограничения

Сайт не распространяет и не хранит электронные версии произведений, а лишь предоставляет доступ к создаваемому пользователями каталогу ссылок на торрент-файлы, которые содержат только списки хеш-сумм

[Профиль] [ЛС]
Показать сообщения:    
Ответить на тему

Текущее время: Сегодня 07:37

Часовой пояс: GMT + 4



Вы не можете начинать темы
Вы не можете отвечать на сообщения
Вы не можете редактировать свои сообщения
Вы не можете удалять свои сообщения
Вы не можете голосовать в опросах
Вы не можете прикреплять файлы к сообщениям
Вы не можете скачивать файлы