Мэрайа Мунди и шкатулка Мидаса / The Adventurer: The Curse of the Midas Box (Джонатан Ньюман / Jonathan Newman) [2013, Великобритания, фэнтези, приключения, семейный, DVDRip] MVO

Ответить на тему
 
Автор Сообщение

user ®

Стаж: 7 лет 7 месяцев

Сообщений: 20008

Пост Пост: #1 от 04-Ноя-2013 17:00

[Цитировать]

Мэрайа Мунди и шкатулка Мидаса
The Adventurer: The Curse of the Midas Box
«The new name for adventure» -Страна: Великобритания / Afrodita Audiovisual, A.I.E., Cinema One, uFilm
Жанр: фэнтези, приключения, семейный
Год выпуска: 2013
Продолжительность: 01:34:35
Перевод: Профессиональный (многоголосый, закадровый)
Cубтитры: нет
Оригинальная аудиодорожка: нет-Режиссер: Джонатан Ньюман / Jonathan Newman
В ролях: Майкл Шин, Лина Хиди, Сэм Нил, Йоан Гриффит, Анайрин Барнард, Кили Хоуз, Тристан Геммилл, Дэниэл Вильде, Мелла Каррон, Ксавьер Аткинс...-Описание: Мир семнадцатилетнего Мэрайа Мунди меняется, когда его родители внезапно исчезают, оставив юношу и его брата Феликса на произвол судьбы.
Автор рипа: _Flash
-Качество: DVDRip / DVD9 R5
Формат: AVI
Видео: 656x368 (16:9), 25.000 fps, XVID ~964 kbps avg, 0.160 bit/pixel
Аудио: 48 kHz, MP3, 2 ch, 128.00 kbps
-

MediaInfo

Общее
Полное имя : D:\Meraya.Mundi.2013.P.745mb.By_Flash.avi
Формат : AVI
Формат/Информация : Audio Video Interleave
Размер файла : 745 Мбайт
Продолжительность : 1 ч. 34 м.
Общий поток : 1101 Кбит/сек
Программа кодирования : VirtualDubMod 1.5.10.3 | www.virtualdub-fr.org || (build 2550/release)
Библиотека кодирования : VirtualDubMod build 2550/release
Видео
Идентификатор : 0
Формат : MPEG-4 Visual
Профиль формата : Advanced Simple@L5
Параметр BVOP формата : 1
Параметр QPel формата : Нет
Параметр GMC формата : Без точки перехода
Параметр матрицы формата : Выборочная
Идентификатор кодека : XVID
Идентификатор кодека/Подсказка : XviD
Продолжительность : 1 ч. 34 м.
Битрейт : 964 Кбит/сек
Ширина : 656 пикселей
Высота : 368 пикселей
Соотношение сторон : 16:9
Частота кадров : 25,000 кадров/сек
Цветовое пространство : YUV
Субдискретизация насыщенности : 4:2:0
Битовая глубина : 8 бит
Тип развёртки : Прогрессивная
Метод сжатия : С потерями
Бит/(Пиксели*Кадры) : 0.160
Размер потока : 652 Мбайт (87%)
Библиотека кодирования : XviD 73
Аудио
Идентификатор : 1
Формат : MPEG Audio
Версия формата : Version 1
Профиль формата : Layer 3
Идентификатор кодека : 55
Идентификатор кодека/Подсказка : MP3
Продолжительность : 1 ч. 34 м.
Вид битрейта : Постоянный
Битрейт : 128 Кбит/сек
Каналы : 2 канала
Частота : 48,0 КГц
Метод сжатия : С потерями
Размер потока : 86,6 Мбайт (12%)
Выравнивание : Соединение по промежуткам
Продолжительность промежутка : 40 мс. (1,00 видеокадр)
Время предзагрузки промежутка : 504 мс.
Библиотека кодирования : LAME3.99r
Настройки программы : -m s -V 4 -q 2 -lowpass 17 -b 128

Скриншоты с навзвания фильма

Скриншоты:

Скачать

Скачать торрент!

Как скачивать? · Что такое торрент? · Рейтинг и ограничения

Сайт не распространяет и не хранит электронные версии произведений, а лишь предоставляет доступ к создаваемому пользователями каталогу ссылок на торрент-файлы, которые содержат только списки хеш-сумм

[Профиль] [ЛС]
Показать сообщения:    
Ответить на тему

Текущее время: Сегодня 18:18

Часовой пояс: GMT + 4



Вы не можете начинать темы
Вы не можете отвечать на сообщения
Вы не можете редактировать свои сообщения
Вы не можете удалять свои сообщения
Вы не можете голосовать в опросах
Вы не можете прикреплять файлы к сообщениям
Вы не можете скачивать файлы