Командир эскадрильи / Wing Commander (Крис Робертс / Chris Roberts) [1999, США, Фантастика,приключения, BDRip 720p] MVO (20th Century Fox R5) + DVO (Лазер-видео) + AVO (Диктор CDV) + Sub Rus, Eng + Original Eng

Ответить на тему
 
Автор Сообщение

user ®

Стаж: 7 лет 7 месяцев

Сообщений: 20008

Пост Пост: #1 от 04-Ноя-2013 13:50

[Цитировать]

Командир эскадрильи / Wing Commander
Страна: США
Студия: 20th Century Fox
Жанр: Фантастика,приключения
Год выпуска: 1999
Продолжительность: 01:40:13
Перевод 1: Профессиональный (многоголосый закадровый) 20th Century Fox R5
Перевод 2: Профессиональный (двухголосый закадровый) Лазер-видео
Перевод 3: Авторский (одноголосый закадровый) Диктор CDV
Cубтитры: русские, английские
Оригинальная аудиодорожка: английский
Режиссер: Крис Робертc /Chris Roberts
В ролях: Фредди Принц мл., Саффрон Берроуз, Мэттью Лиллард, Чеки Карио, Юрген Прохнов, Дэвид Уорнер, Джинни Холдер, Хью Куэрши, Кен Бонс, Джон МакГлинн, Ричард Диллэйн, Марк Поули, Дэвид Фам, Саймон МакКоркиндейл, Фрайзер Джеймс, Крэйг Келли, Кирон Фиппс, Дэвид Суше, Раффаэлло Дегруттола
Описание: Экранизация знаменитой компьютерной игры «Wing Commander`. Десант с земного космического корабля сталкивается со смертоносным оружием в безнадежной битве за будущее человечества. Враждебная инопланетная раса килратхов обнаружила координаты Земли и направляется в Солнечную Систему с планами тотального уничтожения. И вот настало время для двух молодых отчаянных пилотов космических истребителей прорвать оборону килратхов и спасти свою планету от орд захватчиков, встреченных землянами в глубинах космоса.
Тип релиза: BDRip 720p
Контейнер: MKV
Видео: 1280x546; 23.976 fps; 4834 Kbps
Аудио 1: Русский AC3 5.1, 448 Kbps, 48 KHz (Профессиональный многоголосый закадровый 20th Century Fox R5)
Аудио 2: Русский AC3 2.0, 256 Kbps, 48 KHz (Профессиональный двухголосый закадровый Лазер-видео)
Аудио 3: Русский AC3 5.1, 448 Kbps, 48 KHz (Авторский одноголосый закадровый Диктор CDV)
Аудио 4: English AC3 5.1, 640 Kbps, 48 KHz (Оригинал)

MediaInfo

Complete name : Командир эскадрильи BDRip 720p.mkv
Format : Matroska
Format version : Version 2
File size : 4.62 GiB
Duration : 1h 40mn
Overall bit rate : 6 597 Kbps
Encoded date : UTC 2013-11-02 19:36:33
Writing application : mkvmerge v5.0.1 ('Es ist Sommer') built on Oct 9 2011 11:55:43
Writing library : libebml v1.2.2 + libmatroska v1.3.0
Video
ID : 1
Format : AVC
Format/Info : Advanced Video Codec
Format profile : High@L4.1
Format settings, CABAC : Yes
Format settings, ReFrames : 11 frames
Codec ID : V_MPEG4/ISO/AVC
Duration : 1h 40mn
Bit rate : 4 834 Kbps
Width : 1 280 pixels
Height : 546 pixels
Display aspect ratio : 2.35:1
Frame rate mode : Constant
Frame rate : 23.976 fps
Color space : YUV
Chroma subsampling : 4:2:0
Bit depth : 8 bits
Scan type : Progressive
Bits/(Pixel*Frame) : 0.288
Stream size : 3.29 GiB (71%)
Writing library : x264 core 138 r2358kMod 9e941d1
Encoding settings : cabac=1 / ref=11 / deblock=1:-3:-3 / analyse=0x3:0x133 / me=umh / subme=11 / psy=1 / fade_compensate=0.00 / psy_rd=1.05:0.00 / mixed_ref=1 / me_range=32 / chroma_me=1 / trellis=2 / 8x8dct=1 / cqm=0 / deadzone=21,11 / fast_pskip=0 / chroma_qp_offset=-2 / threads=6 / lookahead_threads=1 / sliced_threads=0 / nr=0 / decimate=0 / interlaced=0 / bluray_compat=0 / constrained_intra=0 / bframes=8 / b_pyramid=2 / b_adapt=2 / b_bias=0 / direct=3 / weightb=1 / open_gop=0 / weightp=2 / keyint=240 / keyint_min=23 / scenecut=40 / intra_refresh=0 / rc_lookahead=40 / rc=2pass / mbtree=0 / bitrate=4834 / ratetol=1.0 / qcomp=0.70 / qpmin=0 / qpmax=69 / qpstep=4 / cplxblur=20.0 / qblur=0.5 / vbv_maxrate=38000 / vbv_bufsize=30000 / nal_hrd=none / ip_ratio=1.30 / pb_ratio=1.30 / aq=1:0.75
Language : English
Default : Yes
Forced : No
Audio #1
ID : 2
Format : AC-3
Format/Info : Audio Coding 3
Mode extension : CM (complete main)
Format settings, Endianness : Big
Codec ID : A_AC3
Duration : 1h 40mn
Bit rate mode : Constant
Bit rate : 448 Kbps
Channel count : 6 channels
Channel positions : Front: L C R, Side: L R, LFE
Sampling rate : 48.0 KHz
Bit depth : 16 bits
Compression mode : Lossy
Stream size : 321 MiB (7%)
Title : Многоголосый 20th Century Fox
Language : Russian
Default : Yes
Forced : No
Audio #2
ID : 3
Format : AC-3
Format/Info : Audio Coding 3
Mode extension : CM (complete main)
Format settings, Endianness : Big
Codec ID : A_AC3
Duration : 1h 40mn
Bit rate mode : Constant
Bit rate : 224 Kbps
Channel count : 2 channels
Channel positions : Front: L R
Sampling rate : 48.0 KHz
Bit depth : 16 bits
Compression mode : Lossy
Stream size : 161 MiB (3%)
Title : Двухголосый Лазер Видео
Language : Russian
Default : No
Forced : No
Audio #3
ID : 4
Format : AC-3
Format/Info : Audio Coding 3
Mode extension : CM (complete main)
Format settings, Endianness : Big
Codec ID : A_AC3
Duration : 1h 40mn
Bit rate mode : Constant
Bit rate : 448 Kbps
Channel count : 6 channels
Channel positions : Front: L C R, Side: L R, LFE
Sampling rate : 48.0 KHz
Bit depth : 16 bits
Compression mode : Lossy
Stream size : 321 MiB (7%)
Title : Авторский Диктор CDV
Language : Russian
Default : No
Forced : No
Audio #4
ID : 5
Format : AC-3
Format/Info : Audio Coding 3
Mode extension : CM (complete main)
Format settings, Endianness : Big
Codec ID : A_AC3
Duration : 1h 40mn
Bit rate mode : Constant
Bit rate : 640 Kbps
Channel count : 6 channels
Channel positions : Front: L C R, Side: L R, LFE
Sampling rate : 48.0 KHz
Bit depth : 16 bits
Compression mode : Lossy
Stream size : 459 MiB (10%)
Title : Оригинальный
Language : English
Default : No
Forced : No
Text #1
ID : 6
Format : UTF-8
Codec ID : S_TEXT/UTF8
Codec ID/Info : UTF-8 Plain Text
Language : Russian
Default : Yes
Forced : No
Text #2
ID : 7
Format : UTF-8
Codec ID : S_TEXT/UTF8
Codec ID/Info : UTF-8 Plain Text
Language : English
Default : No
Forced : No
Menu
00:00:00.000 : en:00:00:00.000
00:10:31.881 : en:00:10:31.881
00:18:45.374 : en:00:18:45.374
00:28:57.778 : en:00:28:57.778
00:39:09.973 : en:00:39:09.973
00:49:51.322 : en:00:49:51.322
00:59:54.382 : en:00:59:54.382
01:09:19.572 : en:01:09:19.572
01:20:31.493 : en:01:20:31.493
01:31:51.047 : en:01:31:51.047
01:34:59.193 : en:01:34:59.193

x264log

x264 [info]: frame I:1130 Avg QP:13.35 size:105150
x264 [info]: frame P:31283 Avg QP:15.32 size: 50440
x264 [info]: frame B:111755 Avg QP:17.34 size: 17329
x264 [info]: consecutive B-frames: 2.1% 2.7% 6.4% 20.6% 20.7% 38.1% 5.0% 4.0% 0.5%
encoded 144168 frames, 3.34 fps, 4833.96 kb/s

Сравнение

Wing Commander 1999 1080p Blu-ray AVC TrueHD 5.1-LCHD -----vs ----- Wing Commander BDRip 720p GansAn
http://screenshotcomparison.com/comparison/47000/picture:0
chdbits недокроп слева, hdbits сцена и неправильный аспект
--------------GansAn------------vs -------------CHD -------------vs ------------hdbits









Скриншоты


Скачать

Скачать торрент!

Как скачивать? · Что такое торрент? · Рейтинг и ограничения

Сайт не распространяет и не хранит электронные версии произведений, а лишь предоставляет доступ к создаваемому пользователями каталогу ссылок на торрент-файлы, которые содержат только списки хеш-сумм

[Профиль] [ЛС]
Показать сообщения:    
Ответить на тему

Текущее время: Сегодня 09:51

Часовой пояс: GMT + 4



Вы не можете начинать темы
Вы не можете отвечать на сообщения
Вы не можете редактировать свои сообщения
Вы не можете удалять свои сообщения
Вы не можете голосовать в опросах
Вы не можете прикреплять файлы к сообщениям
Вы не можете скачивать файлы