Город без солнца (Сергей Потемкин) [2005, Драма, DVDRip-AVC]

Ответить на тему
 
Автор Сообщение

user ®

Стаж: 7 лет 7 месяцев

Сообщений: 20008

Пост Пост: #1 от 04-Ноя-2013 10:40

[Цитировать]

Город без солнца«Любовь. Наркотики. Смерть. Надежда...»- Жанр: Драма
Год выпуска: 2005
Продолжительность: 01:41:07-Режиссер: Сергей Потемкин
В ролях: Владимир Аноприенко, Максим Аверин, Сергей Безруков, Александр Большаков, Юлия Маврина, Семен Фурман, Андрей Гончаренко, Максим Гудков, Игорь Герцев, Юлия Каманина и др.-Описание: Преуспевающий инженер Егор влюбляется в юную экстравагантную актрису Люси. Ее брат Алекс — талантливый художник, «злой гений» — делает последнюю своей жизни выставку «Город без солнца», посвящая ее Петербургу. После трагичной смерти брата-наркомана Люси в отчаянии принимает большую дозу наркотиков. Желая спасти Люси, Егор решается на первый в своей жизни серьезный поступок…- -Автор: AngelOfTrue-Качество видео: DVDRip-AVC
Формат видео: MKV
Видео: 716x562@1042x556 (16:9), 25 fps, x264 ~1605 kbps avg, 0.160 bit/pixel
Аудио: AC3 Dolby Digital / 48 KHz / 448 kbps / 3/2 (L,C,R,l,r) + LFE ch

-

x264 log

avs [info]: 716x562p 16:11 @ 25/1 fps (cfr)
x264 [warning]: --psnr used with psy on: results will be invalid!
x264 [warning]: --tune psnr should be used if attempting to benchmark psnr!
x264 [info]: using SAR=16/11
x264 [info]: using cpu capabilities: MMX2 SSE2Fast SSSE3 SSE4.2 AVX AVX2 FMA3 LZCNT BMI1 BMI2
x264 [info]: profile High, level 3.1
x264 [info]: frame I:788 Avg QP:16.19 size: 40335 PSNR Mean Y:48.31 U:51.87 V:52.24 Avg:49.21 Global:48.52
x264 [info]: frame P:31338 Avg QP:18.38 size: 17558 PSNR Mean Y:46.50 U:50.42 V:50.81 Avg:47.47 Global:46.86
x264 [info]: frame B:119574 Avg QP:20.57 size: 5309 PSNR Mean Y:45.81 U:50.15 V:50.56 Avg:46.84 Global:46.17
x264 [info]: consecutive B-frames: 0.8% 1.5% 6.3% 22.6% 16.0% 47.7% 3.7% 0.4% 0.4% 0.1% 0.2% 0.2%
x264 [info]: mb I I16..4: 7.3% 73.0% 19.6%
x264 [info]: mb P I16..4: 1.6% 13.6% 2.1% P16..4: 35.4% 34.9% 8.8% 1.0% 0.1% skip: 2.5%
x264 [info]: mb B I16..4: 0.2% 1.2% 0.2% B16..8: 33.2% 16.4% 1.8% direct: 8.0% skip:38.8% L0:37.1% L1:42.7% BI:20.1%
x264 [info]: 8x8 transform intra:77.4% inter:52.4%
x264 [info]: direct mvs spatial:99.8% temporal:0.2%
x264 [info]: coded y,uvDC,uvAC intra: 82.1% 76.1% 44.2% inter: 25.4% 23.2% 6.0%
x264 [info]: i16 v,h,dc,p: 36% 11% 7% 46%
x264 [info]: i8 v,h,dc,ddl,ddr,vr,hd,vl,hu: 22% 7% 9% 7% 10% 13% 9% 13% 11%
x264 [info]: i4 v,h,dc,ddl,ddr,vr,hd,vl,hu: 37% 6% 8% 6% 9% 12% 7% 8% 7%
x264 [info]: i8c dc,h,v,p: 24% 27% 30% 19%
x264 [info]: Weighted P-Frames: Y:11.0% UV:4.0%
x264 [info]: ref P L0: 46.4% 10.2% 16.9% 7.8% 5.6% 4.3% 3.5% 2.1% 1.7% 1.3% 0.2% 0.0%
x264 [info]: ref B L0: 83.9% 10.1% 2.6% 1.2% 0.8% 0.6% 0.4% 0.2% 0.1%
x264 [info]: ref B L1: 96.3% 3.7%
x264 [info]: SSIM Mean Y:0.9861605 (18.589db)
x264 [info]: PSNR Mean Y:45.969 U:50.214 V:50.622 Avg:46.982 Global:46.311 kb/s:1604.34
x264 [total]: encoded 151700 frames, 10.71 fps, 1604.34 kb/s

-

MediaInfo

Format : Matroska
Format version : Version 4 / Version 2
File size : 1.45 GiB
Duration : 1h 41mn
Overall bit rate : 2 054 Kbps
Encoded date : UTC 2013-11-04 04:01:25
Writing application : mkvmerge v6.1.0 ('Old Devil') built on Mar 4 2013 09:10:42
Writing library : libebml v1.3.0 + libmatroska v1.4.0
Video
ID : 1
Format : AVC
Format/Info : Advanced Video Codec
Format profile : High@L3.1
Format settings, CABAC : Yes
Format settings, ReFrames : 10 frames
Codec ID : V_MPEG4/ISO/AVC
Duration : 1h 41mn
Bit rate : 1 605 Kbps
Width : 716 pixels
Height : 562 pixels
Display aspect ratio : 1.85:1
Original display aspect ratio : 1.85:1
Frame rate mode : Constant
Frame rate : 25.000 fps
Color space : YUV
Chroma subsampling : 4:2:0
Bit depth : 8 bits
Scan type : Progressive
Bits/(Pixel*Frame) : 0.160
Stream size : 1.11 GiB (76%)
Title : Gorod.Bez.Solntsa.2005.RUS.DVDRip-AVC.AC3.-AngelOfTrue
Writing library : x264 core 130 r2273 b3065e6
Encoding settings : cabac=1 / ref=10 / deblock=1:-2:-1 / analyse=0x3:0x133 / me=umh / subme=11 / psy=1 / psy_rd=1.00:0.10 / mixed_ref=1 / me_range=32 / chroma_me=1 / trellis=2 / 8x8dct=1 / cqm=0 / deadzone=21,11 / fast_pskip=0 / chroma_qp_offset=-3 / threads=6 / lookahead_threads=1 / sliced_threads=0 / nr=0 / decimate=0 / interlaced=0 / bluray_compat=0 / constrained_intra=0 / bframes=11 / b_pyramid=2 / b_adapt=2 / b_bias=0 / direct=3 / weightb=1 / open_gop=0 / weightp=2 / keyint=250 / keyint_min=25 / scenecut=40 / intra_refresh=0 / rc=2pass / mbtree=0 / bitrate=1605 / ratetol=1.0 / qcomp=0.65 / qpmin=10 / qpmax=51 / qpstep=4 / cplxblur=20.0 / qblur=0.5 / ip_ratio=1.35 / pb_ratio=1.25 / aq=2:1.00
Language : Russian
Default : Yes
Forced : No
Audio
ID : 2
Format : AC-3
Format/Info : Audio Coding 3
Mode extension : CM (complete main)
Format settings, Endianness : Big
Codec ID : A_AC3
Duration : 1h 41mn
Bit rate mode : Constant
Bit rate : 448 Kbps
Channel count : 6 channels
Channel positions : Front: L C R, Side: L R, LFE
Sampling rate : 48.0 KHz
Bit depth : 16 bits
Compression mode : Lossy
Stream size : 324 MiB (22%)
Title : AC3 Dolby Digital / 48 KHz / 448 kbps / 3/2 (L,C,R,l,r) + LFE ch
Language : Russian
Default : Yes
Forced : Yes

-

Скриншоты (анаморф)


Скачать

Скачать торрент!

Как скачивать? · Что такое торрент? · Рейтинг и ограничения

Сайт не распространяет и не хранит электронные версии произведений, а лишь предоставляет доступ к создаваемому пользователями каталогу ссылок на торрент-файлы, которые содержат только списки хеш-сумм

[Профиль] [ЛС]
Показать сообщения:    
Ответить на тему

Текущее время: Сегодня 07:57

Часовой пояс: GMT + 4



Вы не можете начинать темы
Вы не можете отвечать на сообщения
Вы не можете редактировать свои сообщения
Вы не можете удалять свои сообщения
Вы не можете голосовать в опросах
Вы не можете прикреплять файлы к сообщениям
Вы не можете скачивать файлы