Лимб / Haunter (Винченцо Натали / Vincenzo Natali) [2013, Канада, Франция, ужасы, триллер, детектив, DVB] MVO

Ответить на тему
 
Автор Сообщение

user ®

Стаж: 7 лет 7 месяцев

Сообщений: 20008

Пост Пост: #1 от 04-Ноя-2013 10:40

[Цитировать]

Лимб / Haunter«Не выходи из дома. Не зови на помощь. Не пытайся вырваться» Страна: Канада, Франция
Жанр: ужасы, триллер, детектив
Год выпуска: 2013
Продолжительность: 01:33:08
Перевод: Профессиональный (многоголосый закадровый)
Cубтитры: нет
Режиссер: Винченцо Натали / Vincenzo Natali
В ролях: Эбигейл Бреслин, Питер Аутербридж, Мишель Нолден, Стивен МакХэтти, Питер ДаКуна, Элинор Цихи, Дэвид Нолл, Саманта Вайнштейн, Дэвид Хьюлетт, Сара Мэннинен
Описание:
На первый взгляд, Лиза с её младшим братом и родителями — совершенно обыкновенная семья, ведущая спокойную, размеренную жизнь. Но никто, кроме девочки, не подозревает, что они проживают один и тот же день уже не в первый раз…

Информация

премьера (мир) - 9 марта 2013
премьера (РФ) - 12 сентября 2013
релиз на DVD - 20 октября 2013
релиз на Blu-Ray - 24 октября 2013
Сэмпл: http://sendfile.su/890820

Качество видео: DVB
Формат видео: TS
Видео: MPEG-2, 720x576@1024x576 (4:3), 25 fps, ~2 046 kbps
Аудио: русский, 48 kHz, Mp-2, 2 ch, ~192.00 kbps

MediaInfo

Video
ID : 321 (0x141)
Menu ID : 1 (0x1)
Format : MPEG Video
Format version : Version 2
Format profile : Main@Main
Format settings, BVOP : Yes
Format settings, Matrix : Custom
Format settings, GOP : M=1, N=37
Codec ID : 2
Duration : 1h 33mn
Bit rate mode : Variable
Bit rate : 2 046 Kbps
Maximum bit rate : 15.0 Mbps
Width : 720 pixels
Height : 576 pixels
Display aspect ratio : 4:3
Frame rate : 25.000 fps
Standard : PAL
Color space : YUV
Chroma subsampling : 4:2:0
Bit depth : 8 bits
Scan type : Interlaced
Scan order : Top Field First
Compression mode : Lossy
Bits/(Pixel*Frame) : 0.197
Stream size : 1.33 GiB (87%)
Audio
ID : 401 (0x191)
Menu ID : 1 (0x1)
Format : MPEG Audio
Format version : Version 1
Format profile : Layer 2
Codec ID : 3
Duration : 1h 33mn
Bit rate mode : Constant
Bit rate : 192 Kbps
Channel(s) : 2 channels
Sampling rate : 48.0 KHz
Compression mode : Lossy
Delay relative to video : 2ms
Stream size : 128 MiB (8%)
Language : Russian

Скриншот c названием фильма

Скриншоты

Аноморфированные скриншоты

Скачать

Скачать торрент!

Как скачивать? · Что такое торрент? · Рейтинг и ограничения

Сайт не распространяет и не хранит электронные версии произведений, а лишь предоставляет доступ к создаваемому пользователями каталогу ссылок на торрент-файлы, которые содержат только списки хеш-сумм

[Профиль] [ЛС]
Показать сообщения:    
Ответить на тему

Текущее время: Сегодня 01:47

Часовой пояс: GMT + 4



Вы не можете начинать темы
Вы не можете отвечать на сообщения
Вы не можете редактировать свои сообщения
Вы не можете удалять свои сообщения
Вы не можете голосовать в опросах
Вы не можете прикреплять файлы к сообщениям
Вы не можете скачивать файлы