Солдат с другой планеты / Пришелец / Zone Troopers (Дэнни Билсон / Danny Bilson) [1985, США, фантастика, военный, HDTV 1080i] MVO + original (eng)

Ответить на тему
 
Автор Сообщение

user ®

Стаж: 7 лет 7 месяцев

Сообщений: 20008

Пост Пост: #1 от 04-Ноя-2013 03:35

[Цитировать]

Солдат с другой планеты / Пришелец / Zone Troopers
Год выпуска: 1985
Страна: США
Жанр: фантастика, военный
Продолжительность: 01:26:16
Перевод: Профессиональный (многолосый, закадровый)«Селена Интернейшнл» по заказу СТС
Субтитры: отсутствуют
Оригинальная аудиодорожка: английский
Режиссер: Danny Bilson / Дэнни Билсон
В ролях: Тим Томерсон, Тимоти Ван Паттен, Арт ЛаФлер, Бифф Мэйнард, Уильям Полсон, Питер Бум, Макс Турилли
Описание: Италия, зима 1944 года. Подразделение американской армии попадает в засаду немцев. После боя в живых остаются лишь четверо американцев. Заблудившись в лесу, они страдают от холода и голода, но готовы как можно дороже продать свои жизни. Вдруг неподалеку от них совершает аварийную посадку инопланетный космический корабль!
Правда, вначале солдаты отказываются верить своим глазам, и только Малыш, любитель газетно-журнальных комиксов и фантастическо-приключенческой литературы, сразу понимает, что к чему. Обнаружив, что один из пилотов корабля остался жив, американцы прочесывают лес и находят пришельца, но на этом их приключения только начинаются.
Впереди будут «бои местного значения», кратковременный плен, чудодейственное спасение, общение с пришельцем, способным исполнять любые желания, и относительно крупное сражение с применением инопланетных аннигиляторов.


Качество: HDTV 1080i
Формат: MKV
Видео кодек: H.264
Аудио кодек: AC3
Видео: 1920 x 1080; 25 fps; 6 261 Kbps
Аудио1: Русский, AC3 2.0 224 Kbps 48,0 КГц(MVO)
Аудио2: English, AC3 2.0 384 Kbps 48,0 КГц(Original)

MediaInfo

D:\HDFILMS\Zone.Troopers.1985.HDTV.1080i.Rus.Eng.mkv
General
Unique ID : 183275795143577631630903126486951423791 (0x89E1A25A97CFC292AA1B59D727746F2F)
Complete name : D:\HDFILMS\Zone.Troopers.1985.HDTV.1080i.Rus.Eng.mkv
Format : Matroska
File size : 4.03 GiB
Duration : 1h 22mn
Overall bit rate : 7 009 Kbps
Movie name : Zone Troopers
Encoded date : UTC 2013-11-03 10:49:46
Writing application : mkvmerge v6.2.0 ('Promised Land') built on Apr 28 2013 12:22:01
Writing library : libebml v1.3.0 + libmatroska v1.4.0
Video #1
ID : 1
Format : AVC
Format/Info : Advanced Video Codec
Format profile : Main@L4.0
Format settings, CABAC : Yes
Format settings, ReFrames : 4 frames
Codec ID : V_MPEG4/ISO/AVC
Duration : 1h 22mn
Bit rate : 6 261 Kbps
Width : 1 920 pixels
Height : 1 080 pixels
Display aspect ratio : 16:9
Frame rate : 50.000 fps
Original frame rate : 25.000 fps
Color space : YUV
Chroma subsampling : 4:2:0
Bit depth : 8 bits
Scan type : Interlaced
Scan order : Top Field First
Bits/(Pixel*Frame) : 0.060
Stream size : 3.60 GiB (89%)
Title : Zone Troopers 1985 1080p HDTV H.264 DD2.0-saMMie
Color primaries : BT.709-5, BT.1361, IEC 61966-2-4, SMPTE RP177
Transfer characteristics : BT.709-5, BT.1361
Matrix coefficients : BT.709-5, BT.1361, IEC 61966-2-4 709, SMPTE RP177
Audio #2
ID : 2
Format : AC-3
Format/Info : Audio Coding 3
Mode extension : CM (complete main)
Codec ID : A_AC3
Duration : 1h 22mn
Bit rate mode : Constant
Bit rate : 224 Kbps
Channel(s) : 2 channels
Channel positions : Front: L R
Sampling rate : 48.0 KHz
Bit depth : 16 bits
Compression mode : Lossy
Stream size : 132 MiB (3%)
Title : MVO AC3 2.0 224 kbps
Language : Russian
Audio #3
ID : 3
Format : AC-3
Format/Info : Audio Coding 3
Mode extension : CM (complete main)
Codec ID : A_AC3
Duration : 1h 22mn
Bit rate mode : Constant
Bit rate : 384 Kbps
Channel(s) : 2 channels
Channel positions : Front: L R
Sampling rate : 48.0 KHz
Bit depth : 16 bits
Compression mode : Lossy
Stream size : 226 MiB (5%)
Title : Original AC3 2.0 224 kbps
Language : English
Скачать

Скачать торрент!

Как скачивать? · Что такое торрент? · Рейтинг и ограничения

Сайт не распространяет и не хранит электронные версии произведений, а лишь предоставляет доступ к создаваемому пользователями каталогу ссылок на торрент-файлы, которые содержат только списки хеш-сумм

[Профиль] [ЛС]
Показать сообщения:    
Ответить на тему

Текущее время: Сегодня 06:28

Часовой пояс: GMT + 4



Вы не можете начинать темы
Вы не можете отвечать на сообщения
Вы не можете редактировать свои сообщения
Вы не можете удалять свои сообщения
Вы не можете голосовать в опросах
Вы не можете прикреплять файлы к сообщениям
Вы не можете скачивать файлы