Перси Джексон и Море чудовищ / Percy Jackson: Sea of Monsters (Тор Фройденталь / Thor Freudenthal) [2013, США, Фэнтези, приключения, семейный, WEB-DLRip-AVC] Dub [Звук с CAMRip]

Ответить на тему
 
Автор Сообщение

user ®

Стаж: 7 лет 7 месяцев

Сообщений: 20008

Пост Пост: #1 от 04-Ноя-2013 03:35

[Цитировать]

Перси Джексон и Море чудовищ / Percy Jackson: Sea of Monsters-«Где Боги - там и монстры»-Страна: США
Студия: TCF Vancouver Productions
Жанр: Фэнтези, приключения, семейный
Год выпуска: 2013
Продолжительность: 01:46:30
Перевод: Дублированный [Звук с CAMRip]
Субтитры: Отсутствуют
Оригинальная аудиодорожка: нет-Режиссер: Тор Фройденталь / Thor Freudenthal-В ролях: Логан Лерман, Александра Даддарио, Дуглас Смит, Ливэн Рамбин, Брэндон Т. Джексон, Джейк Эйбел, Энтони Хэд, Стэнли Туччи, Коннор Крэш Данн, Палома Квиатковски-Описание: Лагерь полукровок атакует Люк Кастеллан, который раскрывает свои планы по уничтожению горы Олимп. Наставник Перси, Хирон узнает, что Люк отравил волшебное дерево, которое отвечает за барьер, защищающий Лагерь Полукровок, и которое создано из Талии Грейс, дочери Зевса, убитой циклопом. Аннабет Чейз выясняет, что Золотое Руно может восстановить дерево, и директор лагеря, Дионис, посылает Клариссу Ла Ру, дочь Ареса и соперницу Перси, найти его…- -Дата мировой премьеры: 7 августа 2013
Дата российской премьеры: 22 августа 2013, «Двадцатый Век Фокс СНГ»
Дата выхода DVD релиза: 12 декабря 2013, «Двадцатый Век Фокс СНГ»
Дата выходаBlu-Ray релиза: 12 декабря 2013, «Двадцатый Век Фокс СНГ»-Качество видео: WEB-DLRip-AVC
Формат видео: MKV
Видео: MPEG-4 AVC/H.264, 1024x434 (2.35:1), 23.976 fps, 0.222 bit/pixel, 2369 Kbps
Аудио #1: AC3, 192 Кбит/сек (2ch), 48,0 КГц, 16 бит [Русский, Дубляж]
Аудио #2: AC3, 192 Кбит/сек (2ch), 48,0 КГц, 16 бит [Немецкий]-Дополнительно: Сохранены оригинальные чаптеры как на Blu-ray-

Знаете ли вы, что...

• Фильм снят по мотивам романа Рика Риордана «Перси Джексон и Море чудовищ» (The Sea of Monsters, 2006).
• Во время съемок сцен на яхте и шлюпке Александра Даддарио обнаружила, что у нее есть склонность к морской болезни. Интересно то, что у ее персонажа в романе эта болезнь развивается на корабле «Месть королевы Анны».
• 20 июня — 22 июля съемки проходили в Новом Орлеане.
• Александра Даддарио перекрасила волосы на светлые для роли Аннабет Чейз.
• Планировалось, что фильм будет выпущен 15 марта 2013 года, но в мае 2012 года дата релиза была перенесена на 14 августа 2013 года.
• Ливэн Рамбин для своей роли Клариссы приходилось носить коричневый парик.
• Мистер Ди или Дионис (Стэнли Туччи) все же появился в этом фильме. В первом фильме ("Перси Джексон и похититель молний» (2010)) его персонаж был удален.
• Несмотря на то, что фильм был снят в формате «Супер 35», в финальных титрах указано «снято в Panavision».

Ошибки в фильме

• В сценах в Вашингтоне, Округ Колумбия, на фоне видны небоскребы. По закону, принятому в 1910 году, ограничена высота зданий, самое высокое — 64 метра.
• Когда Аннабет обнаруживает магические силы Золотого Руна на планшете, она затем подбегает к Гроверу, чтобы показать это, в этот момент можно заметить, что на его экране ничего нет.

MediaInfo

General
Unique ID                                : 190678862381369537762295597392301031957 (0x8F7369BFC13FB834B55C055D32EA8215)
Complete name                            : C:\Новинки\Persi.Djekson.i.more.chudovish.2013.Dt.WEBDLRip.h264.mkv
Format                                   : Matroska
Format version                           : Version 2
File size                                : 2.05 GiB
Duration                                 : 1h 46mn
Overall bit rate                         : 2 754 Kbps
Movie name                               : Persi.Djekson.i.more.chudovish.2013.Dt.WEBDLRip.h264.NNM-CLUB.GIU
Encoded date                             : UTC 2013-11-02 05:12:19
Writing application                      : mkvmerge v2.9.9 ('Tutu') built on Nov 25 2009 21:13:32
Writing library                          : libebml v0.7.9   libmatroska v0.8.1
Video
ID                                       : 1
Format                                   : AVC
Format/Info                              : Advanced Video Codec
Format profile                           : High@L4.1
Format settings, CABAC                   : Yes
Format settings, ReFrames                : 10 frames
Codec ID                                 : V_MPEG4/ISO/AVC
Duration                                 : 1h 46mn
Bit rate                                 : 2 369 Kbps
Width                                    : 1 024 pixels
Height                                   : 434 pixels
Display aspect ratio                     : 2.35:1
Frame rate mode                          : Constant
Frame rate                               : 23.976 fps
Color space                              : YUV
Chroma subsampling                       : 4:2:0
Bit depth                                : 8 bits
Scan type                                : Progressive
Bits/(Pixel*Frame)                       : 0.222
Stream size                              : 1.72 GiB (84%)
Title                                    : -=Release for  СПАМ
Writing library                          : x264 core 133 r2334 a3ac64b
Encoding settings                        : cabac=1 / ref=10 / deblock=1:-3:-3 / analyse=0x3:0x113 / me=umh / subme=11 / psy=1 / psy_rd=1.00:0.25 / mixed_ref=1 / me_range=32 / chroma_me=1 / trellis=2 / 8x8dct=1 / cqm=0 / deadzone=21,11 / fast_pskip=1 / chroma_qp_offset=-4 / threads=12 / lookahead_threads=2 / sliced_threads=0 / nr=0 / decimate=0 / interlaced=0 / bluray_compat=0 / constrained_intra=0 / bframes=7 / b_pyramid=2 / b_adapt=2 / b_bias=0 / direct=3 / weightb=1 / open_gop=0 / weightp=2 / keyint=240 / keyint_min=23 / scenecut=40 / intra_refresh=0 / rc_lookahead=40 / rc=2pass / mbtree=1 / bitrate=2369 / ratetol=1.0 / qcomp=0.60 / qpmin=0 / qpmax=69 / qpstep=4 / cplxblur=20.0 / qblur=0.5 / vbv_maxrate=62500 / vbv_bufsize=78125 / nal_hrd=none / ip_ratio=1.40 / aq=1:1.00
Language                                 : English
Default                                  : No
Forced                                   : No
Audio #1
ID                                       : 2
Format                                   : AC-3
Format/Info                              : Audio Coding 3
Mode extension                           : CM (complete main)
Format settings, Endianness              : Big
Codec ID                                 : A_AC3
Duration                                 : 1h 46mn
Bit rate mode                            : Constant
Bit rate                                 : 192 Kbps
Channel count                            : 2 channels
Channel positions                        : Front: L R
Sampling rate                            : 48.0 KHz
Bit depth                                : 16 bits
Compression mode                         : Lossy
Stream size                              : 146 MiB (7%)
Title                                    : AC3.192.Kbps (2ch) Russian (Дубляж TS)
Language                                 : Russian
Default                                  : Yes
Forced                                   : No
Audio #2
ID                                       : 3
Format                                   : AC-3
Format/Info                              : Audio Coding 3
Mode extension                           : CM (complete main)
Format settings, Endianness              : Big
Codec ID                                 : A_AC3
Duration                                 : 1h 46mn
Bit rate mode                            : Constant
Bit rate                                 : 192 Kbps
Channel count                            : 2 channels
Channel positions                        : Front: L R
Sampling rate                            : 48.0 KHz
Bit depth                                : 16 bits
Compression mode                         : Lossy
Stream size                              : 146 MiB (7%)
Title                                    : AC3.192.Kbps (2ch) German
Language                                 : German
Default                                  : No
Forced                                   : No
Menu
00:00:00.000                             : en:1
00:04:06.000                             : en:2
00:06:44.000                             : en:3
00:09:32.000                             : en:4
00:13:54.000                             : en:5
00:19:18.000                             : en:6
00:20:49.000                             : en:7
00:22:11.000                             : en:8
00:25:30.000                             : en:9
00:28:24.000                             : en:10
00:30:28.000                             : en:11
00:33:21.000                             : en:12
00:37:02.000                             : en:13
00:39:50.000                             : en:14
00:45:17.000                             : en:15
00:48:51.000                             : en:16
00:52:44.000                             : en:17
00:56:36.000                             : en:18
01:00:21.000                             : en:19
01:03:37.000                             : en:20
01:05:42.000                             : en:21
01:10:43.000                             : en:22
01:12:33.000                             : en:23
01:16:54.000                             : en:24
01:19:40.000                             : en:25
01:23:03.000                             : en:26
01:25:49.000                             : en:27
01:29:55.000                             : en:28
01:32:48.000                             : en:29
01:34:26.000                             : en:30
01:36:09.000                             : en:31
01:37:39.000                             : en:32

Скриншоты

-
Скачать

Скачать торрент!

Как скачивать? · Что такое торрент? · Рейтинг и ограничения

Сайт не распространяет и не хранит электронные версии произведений, а лишь предоставляет доступ к создаваемому пользователями каталогу ссылок на торрент-файлы, которые содержат только списки хеш-сумм

[Профиль] [ЛС]
Показать сообщения:    
Ответить на тему

Текущее время: Сегодня 01:50

Часовой пояс: GMT + 4



Вы не можете начинать темы
Вы не можете отвечать на сообщения
Вы не можете редактировать свои сообщения
Вы не можете удалять свои сообщения
Вы не можете голосовать в опросах
Вы не можете прикреплять файлы к сообщениям
Вы не можете скачивать файлы