Остров / The Island (Майкл Бэй / Michael Bay) [2005, США, Фантастика, Боевик, Триллер, BDRip 720p]

Ответить на тему
 
Автор Сообщение

user ®

Стаж: 7 лет 7 месяцев

Сообщений: 20008

Пост Пост: #1 от 03-Ноя-2013 21:15

[Цитировать]

-Остров / The Island- Страна: США
Студия: Dreamworks/Warner
Жанр: Фантастика, Боевик, Триллер
Год выпуска: 2005
Продолжительность: 02:16:04
Перевод: Профессиональный (дублированный)
Перевод 2: Профессиональный (двухголосый закадровый)
Перевод 3: Авторский (одноголосый закадровый)
Перевод 4: Авторский (одноголосый закадровый)
Cубтитры: русские, английские
Оригинальная аудиодорожка: английский
Режиссер: Майкл Бэй / Michael Bay
В ролях: Юэн МакГрегор (Lincoln Six Echo / Tom Lincoln), Скарлетт Йоханссон (Jordan Two Delta / Sarah Jordan),Джимон Хунсу (Albert Laurent), Шон Бин (Dr. Merrick), Стив Бушеми (James McCord), Майкл Кларк Дункан (Starkweather Two Delta),Итэн Филлипс (Jones Three Echo), Брайан Степанек (Gandu Three Echo), Ноа Тишби (Community Announcer),Сиобэн Флинн (Lima One Alpha), Трой Бленелл (Laurent Team Member),Джейми МакБрайд (Laurent Team Member)
Описание: Линкольн Шесть-Эхо - житель на вид утопического, но охраняемого поселения середины XXI века. Как и все обитатели этого тщательно контролируемого пространства, Линкольн надеется оказаться среди тех, кого отправят на «Остров» - якобы последнее незагрязненное место на планете. Но очень скоро Линкольн обнаруживает, что абсолютно всё, что касается его существования - ложь.

-Релиз от: HQFans {by Sweet}
Качество: BDRip/720p
Формат: MKV
Видео: кодек: AVC, размер кадра: 1280x534 (AR error: 0 %), битрейт: 12.6 Мбит/сек
Аудио #1: язык: русский, перевод: дубляж (Blu-ray CEE), кодек: AC3 5.1, битрейт: 640 Кбит/сек
Аудио #2: язык: русский, перевод: двухголосый, закадровый (Tycoon), кодек: AC3 5.1, битрейт: 640 Кбит/сек
Аудио #3: язык: русский, перевод: одноголосый, закадровый (Андрей Гаврилов), кодек: AC3 5.1, битрейт: 640 Кбит/сек
Аудио #4: язык: русский, перевод: одноголосый, закадровый (Владимир Королёв), кодек: AC3 5.1, битрейт: 640 Кбит/сек
Аудио #5: язык: английский, кодек: AC3 5.1, битрейт: 640 Кбит/сек
Субтитры: Русские (форсированные, полные), Английские
Навигация по главам: есть
Sample

x264.log

--[Information] [23.07.2011 12:29:39] Standard error stream
---[NoImage] raw [info]: 1280x534p 1:1 @ 24000/1001 fps (cfr)
---[NoImage] x264 [info]: using SAR=1/1
---[NoImage] x264 [info]: using cpu capabilities: MMX2 SSE2Fast SSSE3 FastShuffle SSE4.2 AVX
---[NoImage] x264 [info]: profile High, level 4.1
---[NoImage]
---[NoImage] x264 [info]: frame I:1471 Avg QP:17.76 size:134044
---[NoImage] x264 [info]: frame P:46358 Avg QP:18.92 size: 82543
---[NoImage] x264 [info]: frame B:147914 Avg QP:19.92 size: 59532
---[NoImage] x264 [info]: consecutive B-frames: 3.6% 4.2% 8.1% 25.6% 14.8% 31.7% 4.5% 1.6% 1.8% 2.5% 1.2% 0.5%
---[NoImage] x264 [info]: mb I I16..4: 18.9% 59.7% 21.4%
---[NoImage] x264 [info]: mb P I16..4: 5.1% 33.6% 5.1% P16..4: 22.8% 20.8% 12.0% 0.0% 0.0% skip: 0.7%
---[NoImage] x264 [info]: mb B I16..4: 0.6% 13.1% 1.3% B16..8: 34.7% 19.4% 7.5% direct:14.3% skip: 9.1% L0:41.3% L1:34.5% BI:24.2%
---[NoImage] x264 [info]: 8x8 transform intra:81.5% inter:53.5%
---[NoImage] x264 [info]: direct mvs spatial:97.4% temporal:2.6%
---[NoImage] x264 [info]: coded y,uvDC,uvAC intra: 96.7% 91.9% 77.1% inter: 64.9% 51.3% 21.0%
---[NoImage] x264 [info]: i16 v,h,dc,p: 7% 4% 45% 44%
---[NoImage] x264 [info]: i8 v,h,dc,ddl,ddr,vr,hd,vl,hu: 11% 9% 19% 8% 11% 10% 11% 10% 12%
---[NoImage] x264 [info]: i4 v,h,dc,ddl,ddr,vr,hd,vl,hu: 21% 7% 8% 9% 12% 11% 11% 10% 11%
---[NoImage] x264 [info]: i8c dc,h,v,p: 43% 21% 17% 18%
---[NoImage] x264 [info]: Weighted P-Frames: Y:2.9% UV:1.8%
---[NoImage] x264 [info]: ref P L0: 41.0% 10.5% 18.8% 7.5% 6.2% 4.3% 3.9% 2.2% 2.0% 1.6% 1.6% 0.3% 0.0%
---[NoImage] x264 [info]: ref B L0: 66.3% 14.1% 6.9% 3.8% 2.7% 2.3% 1.8% 1.2% 0.6% 0.3%
---[NoImage] x264 [info]: ref B L1: 91.2% 8.8%
---[NoImage] x264 [info]: kb/s:12571.42
---[NoImage] encoded 195743 frames, 4.88 fps, 12571.42 kb/s

MediaInfo

Format : Matroska
Format : Matroska
Format version : Version 4 / Version 2
File size : 15.0 GiB
Duration : 2h 16mn
Overall bit rate : 15.8 Mbps
Movie name : The Island - Остров (2005) | Release for HQFans
Encoded date : UTC 2013-11-02 01:51:21
Writing application : mkvmerge v6.5.0 ('Isn't she lovely') built on Oct 20 2013 12:50:05
Writing library : libebml v1.3.0 + libmatroska v1.4.1
Attachment : Yes
Video
ID : 1
Format : AVC
Format/Info : Advanced Video Codec
Format profile : High@L4.1
Format settings, CABAC : Yes
Format settings, ReFrames : 11 frames
Codec ID : V_MPEG4/ISO/AVC
Duration : 2h 16mn
Bit rate : 12.6 Mbps
Width : 1 280 pixels
Height : 534 pixels
Display aspect ratio : 2.40:1
Frame rate mode : Constant
Frame rate : 23.976 fps
Color space : YUV
Chroma subsampling : 4:2:0
Bit depth : 8 bits
Scan type : Progressive
Bits/(Pixel*Frame) : 0.768
Stream size : 11.7 GiB (78%)
Title : The Island || Остров || Encode by Sweet (HQFans)
Writing library : x264 core 116 r2019 9cc407d
Encoding settings : cabac=1 / ref=11 / deblock=1:-3:-3 / analyse=0x3:0x113 / me=umh / subme=10 / psy=1 / psy_rd=1.00:0.10 / mixed_ref=1 / me_range=64 / chroma_me=1 / trellis=2 / 8x8dct=1 / cqm=0 / deadzone=21,11 / fast_pskip=0 / chroma_qp_offset=-3 / threads=12 / sliced_threads=0 / nr=0 / decimate=0 / interlaced=0 / bluray_compat=0 / constrained_intra=0 / bframes=11 / b_pyramid=2 / b_adapt=2 / b_bias=0 / direct=3 / weightb=1 / open_gop=0 / weightp=2 / keyint=250 / keyint_min=23 / scenecut=40 / intra_refresh=0 / rc_lookahead=40 / rc=2pass / mbtree=0 / bitrate=12578 / ratetol=1.0 / qcomp=0.60 / qpmin=0 / qpmax=69 / qpstep=4 / cplxblur=20.0 / qblur=0.5 / vbv_maxrate=40000 / vbv_bufsize=30000 / nal_hrd=none / ip_ratio=1.40 / pb_ratio=1.30 / aq=1:0.80
Language : English
Default : Yes
Forced : Yes
Color primaries : BT.709
Transfer characteristics : BT.709
Matrix coefficients : BT.709
Audio #1
ID : 2
Format : AC-3
Format/Info : Audio Coding 3
Mode extension : CM (complete main)
Format settings, Endianness : Big
Codec ID : A_AC3
Duration : 2h 16mn
Bit rate mode : Constant
Bit rate : 640 Kbps
Channel count : 6 channels
Channel positions : Front: L C R, Side: L R, LFE
Sampling rate : 48.0 KHz
Bit depth : 16 bits
Compression mode : Lossy
Stream size : 623 MiB (4%)
Title : AC3 5.1, 640 kbps - Дубляж, Blu-Ray CEE
Language : Russian
Default : Yes
Forced : Yes
Audio #2
ID : 3
Format : AC-3
Format/Info : Audio Coding 3
Mode extension : CM (complete main)
Format settings, Endianness : Big
Codec ID : A_AC3
Duration : 2h 16mn
Bit rate mode : Constant
Bit rate : 640 Kbps
Channel count : 6 channels
Channel positions : Front: L C R, Side: L R, LFE
Sampling rate : 48.0 KHz
Bit depth : 16 bits
Compression mode : Lossy
Stream size : 623 MiB (4%)
Title : AC3 5.1, 640 kbps - Двухголосый закадровый, Tycoon
Language : Russian
Default : No
Forced : No
Audio #3
ID : 4
Format : AC-3
Format/Info : Audio Coding 3
Mode extension : CM (complete main)
Format settings, Endianness : Big
Codec ID : A_AC3
Duration : 2h 16mn
Bit rate mode : Constant
Bit rate : 640 Kbps
Channel count : 6 channels
Channel positions : Front: L C R, Side: L R, LFE
Sampling rate : 48.0 KHz
Bit depth : 16 bits
Compression mode : Lossy
Stream size : 623 MiB (4%)
Title : AC3 5.1, 640 kbps - Авторский, Андрей Гаврилов
Language : Russian
Default : No
Forced : No
Audio #4
ID : 5
Format : AC-3
Format/Info : Audio Coding 3
Mode extension : CM (complete main)
Format settings, Endianness : Big
Codec ID : A_AC3
Duration : 2h 16mn
Bit rate mode : Constant
Bit rate : 640 Kbps
Channel count : 6 channels
Channel positions : Front: L C R, Side: L R, LFE
Sampling rate : 48.0 KHz
Bit depth : 16 bits
Compression mode : Lossy
Stream size : 623 MiB (4%)
Title : AC3 5.1, 640 kbps - Авторский, Владимир Королёв
Language : Russian
Default : No
Forced : No
Audio #5
ID : 6
Format : AC-3
Format/Info : Audio Coding 3
Mode extension : CM (complete main)
Format settings, Endianness : Big
Codec ID : A_AC3
Duration : 2h 16mn
Bit rate mode : Constant
Bit rate : 640 Kbps
Channel count : 6 channels
Channel positions : Front: L C R, Side: L R, LFE
Sampling rate : 48.0 KHz
Bit depth : 16 bits
Compression mode : Lossy
Stream size : 623 MiB (4%)
Title : AC3 5.1, 640 kbps - Original
Language : English
Default : No
Forced : No
Text #1
ID : 7
Format : UTF-8
Codec ID : S_TEXT/UTF8
Codec ID/Info : UTF-8 Plain Text
Title : Forced
Language : Russian
Default : Yes
Forced : Yes
Text #2
ID : 8
Format : UTF-8
Codec ID : S_TEXT/UTF8
Codec ID/Info : UTF-8 Plain Text
Title : BD CEE
Language : Russian
Default : No
Forced : No
Text #3
ID : 9
Format : UTF-8
Codec ID : S_TEXT/UTF8
Codec ID/Info : UTF-8 Plain Text
Language : English
Default : No
Forced : No
Menu
00:00:00.000 : :1. The Lottery
00:10:36.594 : :2. Tranquility Center
00:16:36.829 : :3. Back To Work
00:20:32.606 : :4. Tech Services
00:27:17.761 : :5. Nightlife
00:32:15.391 : :6. On The Loose
00:41:35.993 : :7. Contamination Alert
00:50:43.290 : :8. Albert Laurent
00:56:33.390 : :9. Aces & Spades
01:05:39.226 : :10. Train Station
01:11:58.939 : :11. Information Directory
01:18:32.207 : :12. Tough Day
01:28:36.436 : :13. Your Insurance Policy
01:34:40.925 : :14. Thought I Was Taller
01:40:26.729 : :15. Worth Every Penny
01:46:44.564 : :16. Recall
01:53:10.325 : :17. Too Bad
01:58:47.995 : :18. A Disturbance
02:03:24.063 : :19. My Name Is Lincoln
02:09:53.744 : :20. End Credits
Дорожка №3 была взята из релиза HDCLUB, получена наложением чистого голоса на центр декодированного DTS-HD MA.

Скриншоты

Скачать

Скачать торрент!

Как скачивать? · Что такое торрент? · Рейтинг и ограничения

Сайт не распространяет и не хранит электронные версии произведений, а лишь предоставляет доступ к создаваемому пользователями каталогу ссылок на торрент-файлы, которые содержат только списки хеш-сумм

[Профиль] [ЛС]
Показать сообщения:    
Ответить на тему

Текущее время: Сегодня 04:03

Часовой пояс: GMT + 4



Вы не можете начинать темы
Вы не можете отвечать на сообщения
Вы не можете редактировать свои сообщения
Вы не можете удалять свои сообщения
Вы не можете голосовать в опросах
Вы не можете прикреплять файлы к сообщениям
Вы не можете скачивать файлы