39 ступеней / The 39 Steps (Джеймс Хоуз / James Hawes) [2008, Великобритания, триллер, приключения, детектив, BDRip 720p] VO (innokent33) + Sub Rus + Original Eng

Ответить на тему
 
Автор Сообщение

user ®

Стаж: 7 лет 7 месяцев

Сообщений: 20008

Пост Пост: #1 от 03-Ноя-2013 21:15

[Цитировать]

39 ступеней / The 39 Steps
Страна: Великобритания
Жанр: триллер, приключения, детектив
Год выпуска: 2008
Продолжительность: 01:29:13
Перевод: Одноголосый закадровый innokent33
Cубтитры: русские
Оригинальная аудиодорожка: английский
Режиссер: Джеймс Хоуз / James Hawes
В ролях: Руперт Пенри-Джонс / Rupert Penry-Jones, Лидия Леонард / Lydia Leonard, Дэвид Хэйг / David Haig, Патрик Мэлахайд / Patrick Malahide, Патрик Кеннеди / Patrick Kennedy, Эдди Марсан / Eddie Marsan, Алекс Дженнингс / Alex Jennings и др.
Описание: Ричард Ханней, горный инженер, приехал из Южной Африки отдохнуть в Великобританию. Светская жизнь в Лондоне ему показалась смертельно однообразной и быстро наскучила. И всё бы закончилось быстрым отъездом, когда бы жизнь не внесла свои коррективы.
По случайности сосед по дому, где живет Ричард, тайный агент Британского Бюро разведывательной службы Скаддер, стараясь укрыться от немецких агентов ворвался в квартиру Ханнея и передал ему блокнот с чрезвычайно важной зашифрованной информацией. Скаддера убивают, а Ричарда обвиняют в убийстве…

sample
Качество видео: BDRip (от THUGLiNE)
Формат видео: MKV
Видео: AVC, 6697 Kbps, 1280x720, 16:9, 23.976 fps,
Аудио: MP3, 128 Kbps, 2 channels, 48.0 KHz
Аудио 2: AC-3, 320 Kbps, 2 channels, 48.0 KHz
Формат субтитров: softsub (SRT)

MediaInfo

Complete name : D:\temp\39\The.39.Steps.2008.720p.BDRip.rus.eng.mkv
Format : Matroska
File size : 4.45 GiB
Duration : 1h 29mn
Overall bit rate : 7 146 Kbps
Encoded date : UTC 2013-11-02 12:56:59
Writing application : mkvmerge v6.2.0 ('Promised Land') built on Apr 28 2013 12:22:01
Writing library : libebml v1.3.0 + libmatroska v1.4.0
Video
ID : 1
Format : AVC
Format/Info : Advanced Video Codec
Format profile : High@L4.1
Format settings, CABAC : Yes
Format settings, ReFrames : 5 frames
Muxing mode : Container profile=Unknown@4.1
Codec ID : V_MPEG4/ISO/AVC
Duration : 1h 29mn
Bit rate : 6 697 Kbps
Width : 1 280 pixels
Height : 720 pixels
Display aspect ratio : 16:9
Frame rate : 23.976 fps
Color space : YUV
Chroma subsampling : 4:2:0
Bit depth : 8 bits
Scan type : Progressive
Bits/(Pixel*Frame) : 0.303
Stream size : 4.09 GiB (92%)
Writing library : x264 core 79 r1347 5ddd61b
Encoding settings : cabac=1 / ref=5 / deblock=1:0:0 / analyse=0x3:0x133 / me=umh / subme=7 / psy=1 / psy_rd=1.0:0.0 / mixed_ref=1 / me_range=16 / chroma_me=1 / trellis=1 / 8x8dct=1 / cqm=0 / deadzone=21,11 / chroma_qp_offset=-2 / threads=12 / nr=0 / decimate=1 / mbaff=0 / constrained_intra=0 / bframes=3 / b_pyramid=0 / b_adapt=1 / b_bias=0 / direct=1 / wpredb=1 / wpredp=2 / keyint=250 / keyint_min=25 / scenecut=40 / rc_lookahead=40 / rc=2pass / mbtree=1 / bitrate=6697 / ratetol=1.0 / qcomp=0.60 / qpmin=10 / qpmax=51 / qpstep=4 / cplxblur=20.0 / qblur=0.5 / ip_ratio=1.40 / aq=1:1.00
Audio #1
ID : 2
Format : MPEG Audio
Format version : Version 1
Format profile : Layer 3
Mode : Joint stereo
Mode extension : MS Stereo
Codec ID : A_MPEG/L3
Codec ID/Hint : MP3
Duration : 1h 28mn
Bit rate mode : Constant
Bit rate : 128 Kbps
Channel(s) : 2 channels
Sampling rate : 48.0 KHz
Stream size : 81.3 MiB (2%)
Title : RUS VO innokent33
Writing library : LAME3.99r
Encoding settings : -m j -V 4 -q 2 -lowpass 17 -b 128
Language : Russian
Audio #2
ID : 3
Format : AC-3
Format/Info : Audio Coding 3
Mode extension : CM (complete main)
Codec ID : A_AC3
Duration : 1h 29mn
Bit rate mode : Constant
Bit rate : 320 Kbps
Channel(s) : 2 channels
Channel positions : Front: L R
Sampling rate : 48.0 KHz
Bit depth : 16 bits
Stream size : 204 MiB (4%)
Text
ID : 4
Format : UTF-8
Codec ID : S_TEXT/UTF8
Codec ID/Info : UTF-8 Plain Text
Language : Russian

Скриншоты

Скачать

Скачать торрент!

Как скачивать? · Что такое торрент? · Рейтинг и ограничения

Сайт не распространяет и не хранит электронные версии произведений, а лишь предоставляет доступ к создаваемому пользователями каталогу ссылок на торрент-файлы, которые содержат только списки хеш-сумм

[Профиль] [ЛС]
Показать сообщения:    
Ответить на тему

Текущее время: Сегодня 11:51

Часовой пояс: GMT + 4



Вы не можете начинать темы
Вы не можете отвечать на сообщения
Вы не можете редактировать свои сообщения
Вы не можете удалять свои сообщения
Вы не можете голосовать в опросах
Вы не можете прикреплять файлы к сообщениям
Вы не можете скачивать файлы