Свидетель на свадьбе / The Best Man / Unhitched (Стефан Шварц / Stefan Schwartz) [2005, Германия, США, Великобритания, Венгрия, комедия, мелодрама, WEB-DL 720p] Dub + MVO + Sub Eng + Original Eng

Ответить на тему
 
Автор Сообщение

user ®

Стаж: 7 лет 7 месяцев

Сообщений: 20008

Пост Пост: #1 от 03-Ноя-2013 21:15

[Цитировать]

Свидетель на свадьбе / The Best Man / Unhitched- Страна: Германия, США, Великобритания, Венгрия
Жанр: комедия, мелодрама
Год выпуска: 2005
Продолжительность: 01:35:35
Перевод 1: Профессиональный (дублированный)
Перевод 2: Профессиональный (многоголосый закадровый)
Cубтитры: английские
Оригинальная аудиодорожка: английский-Режиссер: Стефан Шварц / Stefan Schwartz
В ролях: Стюарт Таунсенд, Эми Смарт, Сет Грин, Рафаэль Шварц, Джейкоб Мориарти, Каллум Уильямс, Стив Джон Шеперд, Саймон Кэллоу, Джожи Мэй, Мат Хауманн, Анна Ченселлор, Кейт Эшфилд, Мартин Хэнкок, Питер Капальди, Дэниэл Мейс, Филип Джексон, Мэтт Девере, Ричард Дерден, Том Эллис, Берн Горман и др.-Описание: Романтическая комедия, где Джеймс собирается жениться на Саре и просит своего приятеля по школе Олли (Стюарт Таунсенд) быть его шафером. И вот Олли знакомиться на вечеринке с Сарой, где с 1-ого взгляда влюбляется в неё, но как порядочный молодой человек не даёт знать об этом Джеймсу, зато поведав эту информацию своему личному другу Мюррею (Грин) понимает, что зря всё выложил, т. к. Мюррей делает всё возможное, чтобы разбить пару Джеймс+Сара, зная, что Олли достоин Сары, а Джеймс-нет, и тут идут всевозможные ухищрения, комичные ситуации…-
-Доп. информация: Спасибо за запись с телеэфира многоголосой дорожки - Slim9174 (исходник у него, если чё ).
В дорожке №2 есть момент, где пара секунд без перевода.-Тип релиза: WEB-DL 720p
Контейнер: MKV
Видео: AVC, 1280x530, 3962 kbps, 23.976 fps
Аудио 1: AC3, 384 kbps, 5.1 ch, 48000 Hz - DUB
Аудио 2: AC3, 192 kbps, 2.0 ch, 48000 Hz - MVO
Аудио 3: AC3, 384 kbps, 5.1 ch, 48000 Hz - ENG
Формат субтитров: softsub (SRT)-

Скриншоты


Резервные скриншоты



-

MediaInfo

Format : Matroska
Format version : Version 4 / Version 2
File size : 3.35 GiB
Duration : 1h 35mn
Overall bit rate : 5 022 Kbps
Movie name : Свидетель на свадьбе / The Best Man / Unhitched (2005) Web-DL 720p by RG Torrents.ru
Encoded date : UTC 2013-10-29 18:18:53
Writing application : mkvmerge v6.5.0 ('Isn't she lovely') built on Oct 20 2013 12:50:05
Writing library : libebml v1.3.0 + libmatroska v1.4.1
Attachment : Yes
Video
ID : 1
Format : AVC
Format/Info : Advanced Video Codec
Format profile : Main@L3.1
Format settings, CABAC : No
Format settings, ReFrames : 2 frames
Codec ID : V_MPEG4/ISO/AVC
Duration : 1h 35mn
Bit rate : 3 962 Kbps
Width : 1 280 pixels
Height : 530 pixels
Display aspect ratio : 2.40:1
Frame rate : 23.976 fps
Color space : YUV
Chroma subsampling : 4:2:0
Bit depth : 8 bits
Scan type : Progressive
Bits/(Pixel*Frame) : 0.244
Stream size : 2.64 GiB (79%)
Title : RG Torrents.ru
Language : English
Default : Yes
Forced : No
Color primaries : BT.709-5, BT.1361, IEC 61966-2-4, SMPTE RP177
Transfer characteristics : BT.709-5, BT.1361
Matrix coefficients : BT.709-5, BT.1361, IEC 61966-2-4 709, SMPTE RP177
Audio #1
ID : 2
Format : AC-3
Format/Info : Audio Coding 3
Mode extension : CM (complete main)
Codec ID : A_AC3
Duration : 1h 35mn
Bit rate mode : Constant
Bit rate : 384 Kbps
Channel(s) : 6 channels
Channel positions : Front: L C R, Side: L R, LFE
Sampling rate : 48.0 KHz
Bit depth : 16 bits
Compression mode : Lossy
Stream size : 263 MiB (8%)
Title : DUB
Language : Russian
Default : Yes
Forced : No
Audio #2
ID : 3
Format : AC-3
Format/Info : Audio Coding 3
Mode extension : CM (complete main)
Codec ID : A_AC3
Duration : 1h 35mn
Bit rate mode : Constant
Bit rate : 192 Kbps
Channel(s) : 2 channels
Channel positions : Front: L R
Sampling rate : 48.0 KHz
Bit depth : 16 bits
Compression mode : Lossy
Stream size : 131 MiB (4%)
Title : MVO
Language : Russian
Default : No
Forced : No
Audio #3
ID : 4
Format : AC-3
Format/Info : Audio Coding 3
Mode extension : CM (complete main)
Codec ID : A_AC3
Duration : 1h 35mn
Bit rate mode : Constant
Bit rate : 384 Kbps
Channel(s) : 6 channels
Channel positions : Front: L C R, Side: L R, LFE
Sampling rate : 48.0 KHz
Bit depth : 16 bits
Compression mode : Lossy
Stream size : 263 MiB (8%)
Title : ENG
Language : English
Default : No
Forced : No
Text
ID : 5
Format : UTF-8
Codec ID : S_TEXT/UTF8
Codec ID/Info : UTF-8 Plain Text
Language : English
Default : No
Forced : No
Menu
00:00:00.000 : en:Main Title
00:07:11.000 : en:The Best Man
00:18:40.000 : en:You Met Someone
00:27:50.000 : en:Can't Let Her Down
00:35:21.000 : en:Love and Respect
00:41:48.000 : en:Selling the Flat
00:47:54.000 : en:What's Going On?
00:55:00.000 : en:Surprise
01:03:13.000 : en:Writing the Letter
01:13:26.000 : en:Rehearsal
01:20:34.000 : en:I Love You
01:30:01.000 : en:End Credits
-Перезалито 2.11.2013
Добавлен второй вариант озвучки.
Скачать

Скачать торрент!

Как скачивать? · Что такое торрент? · Рейтинг и ограничения

Сайт не распространяет и не хранит электронные версии произведений, а лишь предоставляет доступ к создаваемому пользователями каталогу ссылок на торрент-файлы, которые содержат только списки хеш-сумм

[Профиль] [ЛС]
Показать сообщения:    
Ответить на тему

Текущее время: Сегодня 04:47

Часовой пояс: GMT + 4



Вы не можете начинать темы
Вы не можете отвечать на сообщения
Вы не можете редактировать свои сообщения
Вы не можете удалять свои сообщения
Вы не можете голосовать в опросах
Вы не можете прикреплять файлы к сообщениям
Вы не можете скачивать файлы