Я сумасшедший / Я безумец / Безумная / I, madman (Тибор Такач / Tibor Takacs) [1989, ужасы, триллер, HDTV 1080i] DVO (НТВ+) + MVO + 2x AVO (Гаврилов, Дохалов) + VO + original (eng) + sub (eng)

Ответить на тему
 
Автор Сообщение

user ®

Стаж: 7 лет 7 месяцев

Сообщений: 20008

Пост Пост: #1 от 03-Ноя-2013 21:15

[Цитировать]

Я сумасшедший / Я безумец / Безумная / I, Madman
Год выпуска: 1989
Страна: США
Жанр: ужасы, триллер
Продолжительность: 01:25:32
Перевод1: Профессиональный (двухголосый, закадровый)(НТВ+)
Перевод2: Профессиональный (многолосый, закадровый)
Перевод3: Авторский (одноголосый, закадровый)(А.Гаврилов)
Перевод4: Авторский (одноголосый, закадровый)(В.Дохалов)
Перевод5: Одноголосый (закадровый)
Субтитры: английские
Оригинальная аудиодорожка: английский
Режиссер: Тибор Такач / Tibor Takacs
В ролях: Дженни Райт /Jenny Wright/, Клэйтон Ронер /Clayton Rohner/, Рэндолл Уильям Кук /Randall William Cook/, Стефани Ходж /Stephanie Hodge/, Мишель Джордан /Michelle Jordan/, Вэнс Валенсия /Vance Valencia/, Мэри Болдуин /Mary Baldwin/, Раф Назарио /Raf Nazario/, Боб Фрэнк /Bob Frank/, Брюс Вагнер /Bruce Wagner/, Кевин Бест /Kevin Best/, Стивен Мемел /Steven Memel/, Винсен Луччези /Vincent Lucchesi/, Мюррэй Рубин /Murray Rubin/, Том Бадал /Tom Badal/
Описание: Молодая женщина Вирджиния захвачена чтением романа ужасов. В мыслях она отождествляет себя с героиней книги, которую преследует сгорающий от страсти маньяк. Литературный монстр неожиданно прорывается в реальный мир, совершая убийства, ранее описанные на страницах романа. И главная его цель - Вирджиния.
Награды и номинации:
• 1990 - Avoriaz Fantastic Film Festival (Франция) - "Гран-при" Фестиваля.
• 1991 - Academy of Science Fiction, Fantasy & Horror Films (США) - Номинация в категории "Лучшая актриса" (Дженни Райт).

Качество: HDTV 1080i
Формат: MKV
Видео кодек: H.264
Аудио кодек: AC3
Видео: 1920 x 1080; 25 fps; 7 864 Kbps
Аудио1: Русский, AC3 2.0 192 Kbps 48,0 КГц(DVO NTV+)
Аудио2: Русский, AC3 2.0 192 Kbps 48,0 КГц(MVO)
Аудио3: Русский, AC3 2.0 192 Kbps 48,0 КГц(Gavrilov)
Аудио4: Русский, AC3 2.0 192 Kbps 48,0 КГц(Dokhalov)
Аудио5: Русский, AC3 2.0 192 Kbps 48,0 КГц(VO)
Аудио6: English, AC3 2.0 384 Kbps 48,0 КГц(Original)
Субтитры: SoftSub (SRT)

MediaInfo

D:\HDFILMS\I,Madman.1989.HDTV.1080i.5xRus.Eng.mkv
General
Unique ID : 242831073609334442268029799868851526525 (0xB6AF9048B1269DECAD2A53D6782F9B7D)
Complete name : D:\HDFILMS\I,Madman.1989.HDTV.1080i.5xRus.Eng.mkv
Format : Matroska
File size : 5.61 GiB
Duration : 1h 25mn
Overall bit rate : 9 395 Kbps
Encoded date : UTC 2013-11-02 10:46:20
Writing application : mkvmerge v6.2.0 ('Promised Land') built on Apr 28 2013 12:22:01
Writing library : libebml v1.3.0 + libmatroska v1.4.0
Video #1
ID : 1
Format : AVC
Format/Info : Advanced Video Codec
Format profile : High@L4.0
Format settings, CABAC : Yes
Format settings, ReFrames : 3 frames
Format settings, GOP : M=1, N=12
Codec ID : V_MPEG4/ISO/AVC
Duration : 1h 25mn
Bit rate : 7 864 Kbps
Width : 1 920 pixels
Height : 1 080 pixels
Display aspect ratio : 16:9
Frame rate : 50.000 fps
Original frame rate : 25.000 fps
Standard : Component
Color space : YUV
Chroma subsampling : 4:2:0
Bit depth : 8 bits
Scan type : Interlaced
Scan order : Top Field First
Bits/(Pixel*Frame) : 0.076
Stream size : 4.70 GiB (84%)
Title : I, Madman 1989 1080p HDTV H.264 DD2.0-saMMie
Color primaries : BT.709-5, BT.1361, IEC 61966-2-4, SMPTE RP177
Transfer characteristics : BT.709-5, BT.1361
Matrix coefficients : BT.709-5, BT.1361, IEC 61966-2-4 709, SMPTE RP177
Audio #2
ID : 2
Format : AC-3
Format/Info : Audio Coding 3
Mode extension : CM (complete main)
Codec ID : A_AC3
Duration : 1h 25mn
Bit rate mode : Constant
Bit rate : 192 Kbps
Channel(s) : 2 channels
Channel positions : Front: L R
Sampling rate : 48.0 KHz
Bit depth : 16 bits
Compression mode : Lossy
Stream size : 117 MiB (2%)
Title : DVO NTV+ AC3 2.0 192 kbps
Language : Russian
Audio #3
ID : 3
Format : AC-3
Format/Info : Audio Coding 3
Mode extension : CM (complete main)
Codec ID : A_AC3
Duration : 1h 25mn
Bit rate mode : Constant
Bit rate : 192 Kbps
Channel(s) : 2 channels
Channel positions : Front: L R
Sampling rate : 48.0 KHz
Bit depth : 16 bits
Compression mode : Lossy
Stream size : 117 MiB (2%)
Title : MVO AC3 2.0 192 kbps
Language : Russian
Audio #4
ID : 4
Format : AC-3
Format/Info : Audio Coding 3
Mode extension : CM (complete main)
Codec ID : A_AC3
Duration : 1h 25mn
Bit rate mode : Constant
Bit rate : 192 Kbps
Channel(s) : 2 channels
Channel positions : Front: L R
Sampling rate : 48.0 KHz
Bit depth : 16 bits
Compression mode : Lossy
Stream size : 117 MiB (2%)
Title : Gavrilov AC3 2.0 192 kbps
Language : Russian
Audio #5
ID : 5
Format : AC-3
Format/Info : Audio Coding 3
Mode extension : CM (complete main)
Codec ID : A_AC3
Duration : 1h 25mn
Bit rate mode : Constant
Bit rate : 192 Kbps
Channel(s) : 2 channels
Channel positions : Front: L R
Sampling rate : 48.0 KHz
Bit depth : 16 bits
Compression mode : Lossy
Stream size : 117 MiB (2%)
Title : Dokhalov AC3 2.0 192 kbps
Language : Russian
Audio #6
ID : 6
Format : AC-3
Format/Info : Audio Coding 3
Mode extension : CM (complete main)
Codec ID : A_AC3
Duration : 1h 25mn
Bit rate mode : Constant
Bit rate : 192 Kbps
Channel(s) : 2 channels
Channel positions : Front: L R
Sampling rate : 48.0 KHz
Bit depth : 16 bits
Compression mode : Lossy
Stream size : 117 MiB (2%)
Title : VO AC3 2.0 192 kbps
Language : Russian
Audio #7
ID : 7
Format : AC-3
Format/Info : Audio Coding 3
Mode extension : CM (complete main)
Codec ID : A_AC3
Duration : 1h 25mn
Bit rate mode : Constant
Bit rate : 384 Kbps
Channel(s) : 2 channels
Channel positions : Front: L R
Sampling rate : 48.0 KHz
Bit depth : 16 bits
Compression mode : Lossy
Stream size : 235 MiB (4%)
Title : Original AC3 2.0 384 kbps
Language : English
Text #8
ID : 8
Format : UTF-8
Codec ID : S_TEXT/UTF8
Codec ID/Info : UTF-8 Plain Text
Language : English

Скриншоты

Скачать

Скачать торрент!

Как скачивать? · Что такое торрент? · Рейтинг и ограничения

Сайт не распространяет и не хранит электронные версии произведений, а лишь предоставляет доступ к создаваемому пользователями каталогу ссылок на торрент-файлы, которые содержат только списки хеш-сумм

[Профиль] [ЛС]
Показать сообщения:    
Ответить на тему

Текущее время: Сегодня 21:54

Часовой пояс: GMT + 4



Вы не можете начинать темы
Вы не можете отвечать на сообщения
Вы не можете редактировать свои сообщения
Вы не можете удалять свои сообщения
Вы не можете голосовать в опросах
Вы не можете прикреплять файлы к сообщениям
Вы не можете скачивать файлы