Я люблю тебя, Филлип Моррис / I Love You Phillip Morris (Гленн Фикарра, Джон Рекуа / Glenn Ficarra, John Requa) [2009, США, Комедия, Драма, BDRip 1080p] Dub + Sub Rus, Eng + Original Eng

Ответить на тему
 
Автор Сообщение

user ®

Стаж: 7 лет 7 месяцев

Сообщений: 20008

Пост Пост: #1 от 03-Ноя-2013 21:15

[Цитировать]

Я люблю тебя, Филлип Моррис / I Love You Phillip Morris
Страна: США
Студия: EuropaCorp
Жанр: Комедия, Драма
Год выпуска: 2009
Продолжительность: 01:37:34
Перевод: Профессиональный (дублированный)
Cубтитры: русские,английские
Оригинальная аудиодорожка: английский
Режиссер: Гленн Фикарра, Джон Рекуа / Glenn Ficarra, John Requa
В ролях: Джим Керри,Юэн МакГрегор,Лесли Манн,Родриго Санторо,Энтони Короне,Бреннан Браун,Майкл Мандел,Энни Голден,Мэрилуиз Бёрк,Дэвид Дженсен
Описание: Стивен Расселл — образцовый отец семейства — в результате дерзкой аферы оказывается в техасской тюрьме. Там он без памяти влюбляется в другого заключенного, Филлипа Морриса.
Сэмпл: http://multi-up.com/919551
Тип релиза: BDRip 1080p
Контейнер: MKV
Видео: MPEG-4 AVC Video 11027 kbps 1080p / 24 fps / 16:9 / High Profile 4.1
Аудио 1: RUS, AC3, 6 channels, 48.0 KHz, 640 kbps - Дубляж
Аудио 2: ENG, AC3, 6 channels, 48.0 KHz, 640 kbps - Оригинал
Формат субтитров: softsub (SRT)

MediaInfo

General
Unique ID : 189738927430411638577070136944760908465 (0x8EBE6360C6525D4E87F4D7EC043EEAB1)
Complete name : C:\I Love You Phillip Morris\I Love You Phillip Morris.mkv
Format : Matroska
Format version : Version 2
File size : 8.39 GiB
Duration : 1h 37mn
Overall bit rate mode : Variable
Overall bit rate : 12.3 Mbps
Movie name : I Love You Phillip Morris_FreeHD.com.ua
Encoded date : UTC 2013-11-03 01:45:10
Writing application : mkvmerge v4.0.0 ('The Stars were mine') сборка от Jun 6 2010 16:18:42
Writing library : libebml v1.0.0 + libmatroska v1.0.0
Video
ID : 1
Format : AVC
Format/Info : Advanced Video Codec
Format profile : High@L4.1
Format settings, CABAC : Yes
Format settings, ReFrames : 3 frames
Codec ID : V_MPEG4/ISO/AVC
Duration : 1h 37mn
Bit rate mode : Variable
Bit rate : 11.0 Mbps
Maximum bit rate : 40.0 Mbps
Width : 1 920 pixels
Height : 1 080 pixels
Display aspect ratio : 16:9
Frame rate mode : Constant
Frame rate : 24.000 fps
Color space : YUV
Chroma subsampling : 4:2:0
Bit depth : 8 bits
Scan type : Progressive
Bits/(Pixel*Frame) : 0.222
Stream size : 7.35 GiB (88%)
Writing library : x264 core 80 r1376M 3feaec2
Encoding settings : cabac=1 / ref=4 / deblock=1:-3:-3 / analyse=0x3:0x113 / me=hex / subme=7 / psy=1 / psy_rd=1.0:0.2 / mixed_ref=1 / me_range=16 / chroma_me=1 / trellis=1 / 8x8dct=1 / cqm=0 / deadzone=21,11 / fast_pskip=1 / chroma_qp_offset=-3 / threads=3 / sliced_threads=0 / slices=4 / nr=0 / decimate=1 / mbaff=0 / constrained_intra=0 / bframes=7 / b_pyramid=1 / b_adapt=1 / b_bias=0 / direct=1 / wpredb=1 / wpredp=2 / keyint=24 / keyint_min=2 / scenecut=40 / rc_lookahead=24 / rc=2pass / mbtree=1 / bitrate=11027 / ratetol=1.0 / qcomp=0.60 / qpmin=10 / qpmax=51 / qpstep=4 / cplxblur=20.0 / qblur=0.5 / vbv_maxrate=40000 / vbv_bufsize=30000 / ip_ratio=1.40 / aq=1:1.00
Language : English
Default : No
Forced : No
Audio #1
ID : 2
Format : AC-3
Format/Info : Audio Coding 3
Mode extension : CM (complete main)
Format settings, Endianness : Big
Codec ID : A_AC3
Duration : 1h 37mn
Bit rate mode : Constant
Bit rate : 640 Kbps
Channel(s) : 6 channels
Channel positions : Front: L C R, Side: L R, LFE
Sampling rate : 48.0 KHz
Bit depth : 16 bits
Compression mode : Lossy
Stream size : 447 MiB (5%)
Title : Дубляж
Language : Russian
Default : No
Forced : Yes
Audio #2
ID : 5
Format : AC-3
Format/Info : Audio Coding 3
Mode extension : CM (complete main)
Format settings, Endianness : Big
Codec ID : A_AC3
Duration : 1h 37mn
Bit rate mode : Constant
Bit rate : 640 Kbps
Channel(s) : 6 channels
Channel positions : Front: L C R, Side: L R, LFE
Sampling rate : 48.0 KHz
Bit depth : 16 bits
Compression mode : Lossy
Stream size : 447 MiB (5%)
Title : Оригинал
Language : English
Default : No
Forced : No
Text #1
ID : 3
Format : UTF-8
Codec ID : S_TEXT/UTF8
Codec ID/Info : UTF-8 Plain Text
Title : Рус
Language : Russian
Default : No
Forced : No
Text #2
ID : 4
Format : UTF-8
Codec ID : S_TEXT/UTF8
Codec ID/Info : UTF-8 Plain Text
Title : Англ
Language : English
Default : No
Forced : No
Menu
00:00:00.000 : en:00:00:00.000
00:02:53.417 : en:00:02:53.417
00:10:10.500 : en:00:10:10.500
00:19:00.667 : en:00:19:00.667
00:26:04.000 : en:00:26:04.000
00:33:42.708 : en:00:33:42.708
00:39:09.208 : en:00:39:09.208
00:45:31.667 : en:00:45:31.667
00:55:18.208 : en:00:55:18.208
01:07:11.042 : en:01:07:11.042
01:17:04.750 : en:01:17:04.750
01:24:11.250 : en:01:24:11.250
01:32:31.833 : en:01:32:31.833

Скриншоты

Скачать

Скачать торрент!

Как скачивать? · Что такое торрент? · Рейтинг и ограничения

Сайт не распространяет и не хранит электронные версии произведений, а лишь предоставляет доступ к создаваемому пользователями каталогу ссылок на торрент-файлы, которые содержат только списки хеш-сумм

[Профиль] [ЛС]
Показать сообщения:    
Ответить на тему

Текущее время: Сегодня 13:40

Часовой пояс: GMT + 4



Вы не можете начинать темы
Вы не можете отвечать на сообщения
Вы не можете редактировать свои сообщения
Вы не можете удалять свои сообщения
Вы не можете голосовать в опросах
Вы не можете прикреплять файлы к сообщениям
Вы не можете скачивать файлы