Дневник Бриджет Джонс / Bridget Jones\'s Diary (Шарон Магуайр / Sharon Maguire) [2001 г., США, Великобритания, Ирландия, Франция, романтическая комедия, BDRemux 1080p] Dub + 2х MVO + Ukr + 2x AVO + Sub rus, eng + Comm

Ответить на тему
 
Автор Сообщение

user ®

Стаж: 7 лет 7 месяцев

Сообщений: 20008

Пост Пост: #1 от 03-Ноя-2013 21:15

[Цитировать]

Дневник Бриджет Джонс / Bridget Jones's Diary«Образ жизни Бриджет Джонс опасен для Вашего здоровья»
Страна: Франция , Великобритания
Жанр: романтическая комедия
Продолжительность: 01:37:00
Год выпуска: 2001
Перевод 1: Профессиональный (многоголосый, закадровый) неопознанный
Перевод 2: Профессиональный (многоголосый, закадровый) Universal Pictures Rus
Перевод 3: дубляж ОРТ
Перевод 4: авторский (одноголосый закадровый) Ю.Живов
Перевод 5: авторский (одноголосый закадровый) С.Визгунов
Оригинальная аудиодорожка: английский
Русские субтитры: есть
Режиссёр: Шарон Магуайр / Sharon Maguire
В ролях: Рене Зельвегер, Колин Ферт, Хью Грант, Джемма Джонс, Селия Имри, Джеймс Фолкнер, Джим Бродбент, Чармиан Мей, Пол Брук, Фелисити Монтагу
Описание: Героиня этого фильма, Бриджет Джонс, решила, наконец, взять себя в руки и начать новую жизнь! И давно пора! Ей уже за тридцать, но она безвольно потакает своим вредным привычкам и не решается избавиться от лишних килограммов. Но, что самое главное, Бриджет - совсем одна.
Родители пытаются сосватать её за сына соседей, скромника Марка, а сама Бриджет без ума от своего неотразимого начальника Дэниэла! С первого дня новой жизни мисс Джонс решает вести дневник, в который она будет записывать свои будущие достижения и победы. Но оказалось, что осуществить мечты и найти истинную любовь гораздо сложней, чем это представлялось нашей прелестной героине...

-

-
Качество: BDRemux
Формат: MKV
Видео: VC-1 Video, 1920x1080 at 23.976 fps, ~28767 kbps avg
Аудио:
Аудио #1 русский: AC3, DD 5.1, 3/2ch, 448Kbps, 48,0 КГц, 24Бит - неопознанный
Аудио #2 русский: AC3, DD 5.1, 3/2ch, 384Kbps, 48,0 КГц, 24Бит - МВО Universal Pictures Rus
Аудио #3 русский: АС3, DD 2.0, 2ch, 192Kbps - дубляж ОРТ
Аудио #4 украинский: АС3, DD 2.0, 2ch, 192Kbps - МВО Новый канал
Аудио #5 русский: Russian: 48 kHz/24-bit, DTS-HD MA 5.1, ~4262 kbps avg (DTS Core: 5.1 / 48 kHz / 1509 kbps / 24-bit) Одноголосый закадровый - Ю.Живов
Аудио #6 русский: Russian: 48 kHz/24-bit, DTS-HD MA 5.1, ~4268 kbps avg (DTS Core: 5.1 / 48 kHz / 1509 kbps / 24-bit) Одноголосый закадровый - С.Визгунов
Аудио #7 английский: 48 kHz/24-bit, DTS-HD MA 5.1, ~4254 kbps avg (DTS Core: 5.1 / 48 kHz / 1509 kbps / 24-bit)
Аудио #8 английский: АС3, DD 2.0, 2ch, 192Kbps - коментарии Шарон Магуайр
Субтитры: 1. Русские - два варианта, на коментарии 2. Английские;
Формат субтитров - SRT
-

Дополнительная информация

Звуковая дорожка 5 и 6: получена наложением чистого голоса на центр декодированного оригинала.
Разбивка глав как в исходном Blu-ray.

MediaInfo

Общее
Полное имя : K:\Bridget Jones's Diary_2001_BDremux.mkv
Формат : Matroska
Размер файла : 29,1 Гбайт
Продолжительность : 1 ч. 37 м.
Общий поток : 42,9 Мбит/сек
Дата кодирования : UTC 2013-11-03 07:01:12
Программа кодирования : mkvmerge v6.5.0 ('Isn't she lovely') built on Oct 20 2013 12:50:05
Библиотека кодирования : libebml v1.3.0 + libmatroska v1.4.1
Видео
Идентификатор : 1
Формат : VC-1
Профиль формата : AP@L3
Идентификатор кодека : WVC1
Идентификатор кодека/Подсказка : Microsoft
Продолжительность : 1 ч. 37 м.
Ширина : 1920 пикселей
Высота : 1080 пикселей
Соотношение сторон : 16:9
Частота кадров : 23,976 кадра/сек
Субдискретизация насыщенности : 4:2:0
Битовая глубина : 8 бит
Тип развёртки : Прогрессивная
Аудио #1
Идентификатор : 2
Формат : AC-3
Формат/Информация : Audio Coding 3
Расширение режима : CM (complete main)
Идентификатор кодека : A_AC3
Продолжительность : 1 ч. 37 м.
Вид битрейта : Постоянный
Битрейт : 448 Кбит/сек
Каналы : 6 каналов
Расположение каналов : Front: L C R, Side: L R, LFE
Частота : 48,0 КГц
Битовая глубина : 16 бит
Размер потока : 311 Мбайт (1%)
Заголовок : DVO Taycon
Язык : Russian
Аудио #2
Идентификатор : 3
Формат : AC-3
Формат/Информация : Audio Coding 3
Расширение режима : CM (complete main)
Идентификатор кодека : A_AC3
Продолжительность : 1 ч. 37 м.
Вид битрейта : Постоянный
Битрейт : 384 Кбит/сек
Каналы : 6 каналов
Расположение каналов : Front: L C R, Side: L R, LFE
Частота : 48,0 КГц
Битовая глубина : 16 бит
Размер потока : 267 Мбайт (1%)
Заголовок : MVO R5
Язык : Russian
Аудио #3
Идентификатор : 4
Формат : AC-3
Формат/Информация : Audio Coding 3
Расширение режима : CM (complete main)
Идентификатор кодека : A_AC3
Продолжительность : 1 ч. 37 м.
Вид битрейта : Постоянный
Битрейт : 192 Кбит/сек
Каналы : 2 канала
Расположение каналов : Front: L R
Частота : 48,0 КГц
Битовая глубина : 16 бит
Размер потока : 133 Мбайт (0%)
Заголовок : dub OPT
Язык : Russian
Аудио #4
Идентификатор : 5
Формат : AC-3
Формат/Информация : Audio Coding 3
Расширение режима : CM (complete main)
Идентификатор кодека : A_AC3
Продолжительность : 1 ч. 37 м.
Вид битрейта : Постоянный
Битрейт : 192 Кбит/сек
Каналы : 2 канала
Расположение каналов : Front: L R
Частота : 48,0 КГц
Битовая глубина : 16 бит
Размер потока : 133 Мбайт (0%)
Заголовок : MVO
Язык : Ukrainian
Аудио #5
Идентификатор : 6
Формат : DTS
Формат/Информация : Digital Theater Systems
Профиль формата : MA
Идентификатор кодека : A_DTS
Продолжительность : 1 ч. 37 м.
Вид битрейта : Переменный
Каналы : 6 каналов
Расположение каналов : Front: L C R, Side: L R, LFE
Частота : 48,0 КГц
Битовая глубина : 24 бит
Заголовок : Givov
Язык : Russian
Аудио #6
Идентификатор : 7
Формат : DTS
Формат/Информация : Digital Theater Systems
Профиль формата : MA
Идентификатор кодека : A_DTS
Продолжительность : 1 ч. 37 м.
Вид битрейта : Переменный
Каналы : 6 каналов
Расположение каналов : Front: L C R, Side: L R, LFE
Частота : 48,0 КГц
Битовая глубина : 24 бит
Заголовок : Vizgunov
Язык : Russian
Аудио #7
Идентификатор : 8
Формат : DTS
Формат/Информация : Digital Theater Systems
Профиль формата : MA
Идентификатор кодека : A_DTS
Продолжительность : 1 ч. 37 м.
Вид битрейта : Переменный
Каналы : 6 каналов
Расположение каналов : Front: L C R, Side: L R, LFE
Частота : 48,0 КГц
Битовая глубина : 24 бит
Заголовок : orig
Язык : English
Аудио #8
Идентификатор : 9
Формат : AC-3
Формат/Информация : Audio Coding 3
Профиль формата : Dolby Digital
Расширение режима : CM (complete main)
Идентификатор кодека : A_AC3
Продолжительность : 1 ч. 37 м.
Вид битрейта : Постоянный
Битрейт : 192 Кбит/сек
Каналы : 2 канала
Расположение каналов : Front: L R
Частота : 48,0 КГц
Битовая глубина : 16 бит
Размер потока : 133 Мбайт (0%)
Заголовок : coment
Язык : English
Текст #1
Идентификатор : 10
Формат : UTF-8
Идентификатор кодека : S_TEXT/UTF8
Идентификатор кодека/Информация : UTF-8 Plain Text
Заголовок : sub 1
Язык : Russian
Текст #2
Идентификатор : 11
Формат : UTF-8
Идентификатор кодека : S_TEXT/UTF8
Идентификатор кодека/Информация : UTF-8 Plain Text
Заголовок : sub 2
Язык : Russian
Текст #3
Идентификатор : 12
Формат : UTF-8
Идентификатор кодека : S_TEXT/UTF8
Идентификатор кодека/Информация : UTF-8 Plain Text
Заголовок : sub coment
Язык : Russian
Текст #4
Идентификатор : 13
Формат : UTF-8
Идентификатор кодека : S_TEXT/UTF8
Идентификатор кодека/Информация : UTF-8 Plain Text
Заголовок : sub
Язык : English
Меню
00:00:00.000 : :(безымянный)
00:07:20.899 : :(безымянный)
00:11:50.001 : :(безымянный)
00:18:09.338 : :(безымянный)
00:23:24.862 : :(безымянный)
00:31:22.923 : :(безымянный)
00:36:51.543 : :(безымянный)
00:40:18.458 : :(безымянный)
00:46:19.318 : :(безымянный)
00:50:46.669 : :(безымянный)
00:57:03.211 : :(безымянный)
01:00:19.491 : :(безымянный)
01:05:55.160 : :(безымянный)
01:13:57.850 : :(безымянный)
01:17:30.604 : :(безымянный)
01:23:25.959 : :(безымянный) / :(безымянный)

Скриншоты

Скачать

Скачать торрент!

Как скачивать? · Что такое торрент? · Рейтинг и ограничения

Сайт не распространяет и не хранит электронные версии произведений, а лишь предоставляет доступ к создаваемому пользователями каталогу ссылок на торрент-файлы, которые содержат только списки хеш-сумм

[Профиль] [ЛС]
Показать сообщения:    
Ответить на тему

Текущее время: Сегодня 09:59

Часовой пояс: GMT + 4



Вы не можете начинать темы
Вы не можете отвечать на сообщения
Вы не можете редактировать свои сообщения
Вы не можете удалять свои сообщения
Вы не можете голосовать в опросах
Вы не можете прикреплять файлы к сообщениям
Вы не можете скачивать файлы