Советник / The Counselor (Ридли Скотт / Ridley Scott) [2013, США, Великобритания, Криминал, триллер, драма, CAMRip] Dub

Ответить на тему
 
Автор Сообщение

user ®

Стаж: 7 лет 7 месяцев

Сообщений: 20008

Пост Пост: #1 от 03-Ноя-2013 21:15

[Цитировать]

Советник / The Counselor- Страна: США, Великобритания
Студия: Chockstone Pictures, Scott Free Productions, Kanzaman S.A.
Жанр: Криминал, триллер, драма
Год выпуска: 2013
Продолжительность: 01:36:05-Перевод: Профессиональный (дублированный)
Cубтитры: Отсутствуют-Режиссер: Ридли Скотт / Ridley Scott-В ролях: Майкл Фассбендер, Пенелопа Крус, Кэмерон Диаз, Хавьер Бардем, Брэд Питт, Бруно Ганц, Рози Перес, Тоби Кеббелл, Эмма Ригби, Эдгар Рамирез-Описание: Успешный адвокат, стоящий практически на вершине успеха и на пороге собственной свадьбы, из любопытства и, конечно, ради денег соглашается на предложение своего давнего знакомого, имеющего тесные связи с преступным миром, перевезти из Мексики в США партию кокаина стоимостью 20 млн. долл-Сэмпл: http://multi-up.com/919665-Дата мировой премьеры: 25 октября 2013
Дата российской премьеры: 31 октября 2013, «Двадцатый Век Фокс СНГ»
Дата выхода DVD релиза: 27 марта 2014, «Двадцатый Век Фокс СНГ»-Качество видео: CAMRip
Формат видео: AVI
Видео: XviD build 50, 720x360 (2.00:1), 29.970 fps, 886 kbps avg, 0.11 bit/pixel
Аудио: MPEG Layer 3, 48 kHz, 2ch, 128.00 kbps avg
-

MediaInfo

General
Complete name : C:\Новинки\Sovetnik.2013.CamRip.700MB.avi
Format : AVI
Format/Info : Audio Video Interleave
File size : 705 MiB
Duration : 1h 36mn
Overall bit rate : 1 026 Kbps
Writing application : VirtualDubMod 1.5.10.3 | www.virtualdub-fr.org || (build 2550/release)
Writing library : VirtualDubMod build 2550/release
Video
ID : 0
Format : MPEG-4 Visual
Format profile : Advanced Simple@L5
Format settings, BVOP : 1
Format settings, QPel : No
Format settings, GMC : No warppoints
Format settings, Matrix : Default (MPEG)
Codec ID : XVID
Codec ID/Hint : XviD
Duration : 1h 36mn
Bit rate : 886 Kbps
Width : 720 pixels
Height : 360 pixels
Display aspect ratio : 2.000
Frame rate : 29.970 fps
Color space : YUV
Chroma subsampling : 4:2:0
Bit depth : 8 bits
Scan type : Progressive
Compression mode : Lossy
Bits/(Pixel*Frame) : 0.114
Stream size : 609 MiB (86%)
Writing library : XviD 1.2.1 (UTC 2008-12-04)
Audio
ID : 1
Format : MPEG Audio
Format version : Version 1
Format profile : Layer 3
Codec ID : 55
Codec ID/Hint : MP3
Duration : 1h 36mn
Bit rate mode : Constant
Bit rate : 128 Kbps
Channel count : 2 channels
Sampling rate : 48.0 KHz
Compression mode : Lossy
Stream size : 88.0 MiB (12%)
Alignment : Aligned on interleaves
Interleave, duration : 33 ms (1.00 video frame)
Interleave, preload duration : 504 ms
Writing library : LAME3.99r
Encoding settings : -m s -V 4 -q 2 -lowpass 17 -b 128

Скриншот c названием фильма

Скриншоты

-
Скачать

Скачать торрент!

Как скачивать? · Что такое торрент? · Рейтинг и ограничения

Сайт не распространяет и не хранит электронные версии произведений, а лишь предоставляет доступ к создаваемому пользователями каталогу ссылок на торрент-файлы, которые содержат только списки хеш-сумм

[Профиль] [ЛС]
Показать сообщения:    
Ответить на тему

Текущее время: Сегодня 03:48

Часовой пояс: GMT + 4



Вы не можете начинать темы
Вы не можете отвечать на сообщения
Вы не можете редактировать свои сообщения
Вы не можете удалять свои сообщения
Вы не можете голосовать в опросах
Вы не можете прикреплять файлы к сообщениям
Вы не можете скачивать файлы