Когда волк влюбляется в овечку / When A Wolf Falls In Love With A Sheep / Nan fang xiao yang mu chang (Чи-Джань Хоу / Chi-jan Hou) [2012, Тайвань, мелодрама, комедия, HDRip] VO (mi24)

Ответить на тему
 
Автор Сообщение

user ®

Стаж: 11 лет

Сообщений: 15151

Пост Пост: #1 от 03-Ноя-2013 12:45

[Цитировать]

Когда волк влюбляется в овечку / When A Wolf Falls In Love With A Sheep / Nan fang xiao yang mu chang
Страна: Тайвань
Жанр: мелодрама, комедия
Год выпуска: 2012
Продолжительность: 01:26
Перевод: Одноголосый закадровый mi24
Cубтитры: нет
Режиссер: Чи-Джань Хоу / Chi-jan Hou
В ролях: Жендонг Ке (Zhendong Ke), Мэн Шу Джиан (Man Shu Jian), Man-shu Chien, Shu-yao Kuo
Shu-yao Kuo
Описание: Он обычный парень с разбитым сердцем, работающий в небольшом магазинчике и зарабатывающий себе на жизнь тем, что делает копии экзаменационных бланков для местной школы. Однажды на одном из бланков он замечает нарисованную овечку, вот тут-то всё и начинается…
Сэмпл: http://multi-up.com/919519
Качество видео: HDRip
Формат видео: MKV
Видео: x264, 720x320, 2,25:1, 29,970 кадров/сек, 2000 Кбит/сек
Аудио: AC-3 Dolby Digital, 48,0 КГц, 448 Кбит/сек, 6 каналов (L C R, Side: L R, LFE)

MediaInfo

Общее
Уникальный идентификатор : 177671155143800529753768977959814602852 (0x85AA38447454EF9F91002069349EA064)
Полное имя : D:\video\When a Wolf Falls in Love With a Sheep.mkv
Формат : Matroska
Версия формата : Version 4 / Version 2
Размер файла : 1,45 Гбайт
Продолжительность : 1 ч. 25 м.
Общий поток : 2434 Кбит/сек
Дата кодирования : UTC 2013-11-02 18:35:52
Программа кодирования : mkvmerge v6.1.0 ('Old Devil') built on Mar 4 2013 09:10:42
Библиотека кодирования : libebml v1.3.0 + libmatroska v1.4.0
Видео
Идентификатор : 1
Формат : AVC
Формат/Информация : Advanced Video Codec
Профиль формата : Main@L3.0
Параметр CABAC формата : Да
Параметр ReFrames формата : 3 кадра
Идентификатор кодека : V_MPEG4/ISO/AVC
Продолжительность : 1 ч. 25 м.
Битрейт : 2000 Кбит/сек
Ширина : 720 пикселей
Высота : 320 пикселей
Соотношение сторон : 2,25:1
Режим частоты кадров : Постоянный
Частота кадров : 29,970 кадров/сек
Цветовое пространство : YUV
Субдискретизация насыщенности : 4:2:0
Битовая глубина : 8 бит
Тип развёртки : Прогрессивная
Бит/(Пиксели*Кадры) : 0.290
Размер потока : 1,15 Гбайт (80%)
Библиотека кодирования : x264 core 120
Настройки программы : cabac=1 / ref=3 / deblock=1:1:-2 / analyse=0x1:0 / me=umh / subme=7 / psy=1 / psy_rd=1.00:0.00 / mixed_ref=1 / me_range=16 / chroma_me=1 / trellis=2 / 8x8dct=0 / cqm=0 / deadzone=21,11 / fast_pskip=1 / chroma_qp_offset=-2 / threads=6 / sliced_threads=0 / nr=0 / decimate=1 / interlaced=0 / bluray_compat=0 / constrained_intra=0 / bframes=16 / b_pyramid=0 / b_adapt=1 / b_bias=0 / direct=1 / weightb=1 / open_gop=0 / weightp=2 / keyint=300 / keyint_min=30 / scenecut=40 / intra_refresh=0 / rc_lookahead=40 / rc=2pass / mbtree=1 / bitrate=2000 / ratetol=1.0 / qcomp=0.60 / qpmin=3 / qpmax=69 / qpstep=4 / cplxblur=20.0 / qblur=0.5 / ip_ratio=1.40 / aq=1:1.00
Язык : English
Default : Да
Forced : Нет
Основные цвета : BT.601 NTSC
Характеристики трансфера : BT.709
Коэффициенты матрицы : BT.601
Аудио
Идентификатор : 2
Формат : AC-3
Формат/Информация : Audio Coding 3
Расширение режима : CM (complete main)
Параметр Endianness формата : Big
Идентификатор кодека : A_AC3
Продолжительность : 1 ч. 25 м.
Вид битрейта : Постоянный
Битрейт : 448 Кбит/сек
Каналы : 6 каналов
Расположение каналов : Front: L C R, Side: L R, LFE
Частота : 48,0 КГц
Битовая глубина : 16 бит
Метод сжатия : С потерями
Размер потока : 273 Мбайт (18%)
Default : Нет
Forced : Нет

Скриншот c названием фильма

Скриншоты

Скачать

Скачать торрент! Когда волк влюбляется в овечку / When A Wolf Falls In Love With A Sheep / Nan fang xiao yang mu chang (Чи-Джань Хоу / Chi-jan Hou) [2012, Тайвань, мелодрама, комедия, HDRip] VO (mi24)

Как скачивать? · Что такое торрент? · Рейтинг и ограничения

Сайт не распространяет и не хранит электронные версии произведений, а лишь предоставляет доступ к создаваемому пользователями каталогу ссылок на торрент-файлы, которые содержат только списки хеш-сумм

[Профиль] [ЛС]
Показать сообщения:    
Ответить на тему

Текущее время: Сегодня 13:35

Часовой пояс: GMT + 4



Вы не можете начинать темы
Вы не можете отвечать на сообщения
Вы не можете редактировать свои сообщения
Вы не можете удалять свои сообщения
Вы не можете голосовать в опросах
Вы не можете прикреплять файлы к сообщениям
Вы не можете скачивать файлы