Письмо Дракуле / Dear Dracula (Чад Ван Де Кер / Chad Van De Keere) [2012, Приключения, Комедия, DVB] Dub

Ответить на тему
 
Автор Сообщение

user ®

Стаж: 13 лет

Сообщений: 15041

Пост Пост: #1 от 03-Ноя-2013 02:30

[Цитировать]

Письмо Дракуле / Dear Dracula
Страна: США
Жанр: Приключения, Комедия
Продолжительность: 00:42:04
Год выпуска: 2012
Перевод: Профессиональный (дублированный)
Русские субтитры: нет
Режиссёр: Чад Ван Де Кер / Chad Van De Keere
Описание: Мальчик Сэм обожает рассказывать страшные истории и знает толк в розыгрышах. В канун праздника Хэллоуин он пишет письмо своему кумиру, графу Дракуле, и приглашает его в гости. Сэм мечтает от души повеселиться в компании вампира и до смерти напугать всех своих соседей. Наконец, в ночь празднования таинственный граф появляется на пороге дома мальчишки. Восторгу Сэма нет предела! Но вдруг выясняется, что самый опасный вампир всех времен не в состоянии внушить страх даже трехлетней девчонке!
Релиз
Семпл
Качество: DVB
Формат: mpg
Видео: MPEG2 Video 720x576 (4:3) 25fps 1 716 Kbps
Аудио: MPEG Audio 48000Hz stereo 192kbps
Субтитры: отсутствуют

Подробные технические данные

GeneralComplete name : C:\Письмо Дракуле.mpgFormat : MPEG-PSFile size : 586 MiBDuration : 42mn 4sOverall bit rate mode : VariableOverall bit rate : 1 947 Kbps
VideoID : 224 (0xE0)Format : MPEG VideoFormat version : Version 2Format profile : Main@MainFormat settings, BVOP : YesFormat settings, Matrix : CustomFormat settings, GOP : M=3, N=36Duration : 42mn 3sBit rate mode : VariableBit rate : 1 716 KbpsMaximum bit rate : 15.0 MbpsWidth : 720 pixelsHeight : 576 pixelsDisplay aspect ratio : 4:3Frame rate : 25.000 fpsStandard : PALColor space : YUVChroma subsampling : 4:2:0Bit depth : 8 bitsScan type : InterlacedScan order : Top Field FirstCompression mode : LossyBits/(Pixel*Frame) : 0.166Stream size : 516 MiB (88%)
AudioID : 192 (0xC0)Format : MPEG AudioFormat version : Version 1Format profile : Layer 2Duration : 42mn 4sBit rate mode : ConstantBit rate : 192 KbpsChannel(s) : 2 channelsSampling rate : 48.0 KHzCompression mode : LossyDelay relative to video : 3msStream size : 57.8 MiB (10%)

Скриншоты

Скачать

Скачать торрент! Письмо Дракуле / Dear Dracula (Чад Ван Де Кер / Chad Van De Keere) [2012, Приключения, Комедия, DVB] Dub

Как скачивать? · Что такое торрент? · Рейтинг и ограничения

Сайт не распространяет и не хранит электронные версии произведений, а лишь предоставляет доступ к создаваемому пользователями каталогу ссылок на торрент-файлы, которые содержат только списки хеш-сумм

[Профиль] [ЛС]
Показать сообщения:    
Ответить на тему

Текущее время: Сегодня 22:54

Часовой пояс: GMT + 4



Вы не можете начинать темы
Вы не можете отвечать на сообщения
Вы не можете редактировать свои сообщения
Вы не можете удалять свои сообщения
Вы не можете голосовать в опросах
Вы не можете прикреплять файлы к сообщениям
Вы не можете скачивать файлы