Проклятие Чаки / Curse of Chucky (Дон Манчини / Don Mancini) [2013 г., США, ужасы, триллер, BDRip] Dub + Original + Sub (Rus, Eng)

Ответить на тему
 
Автор Сообщение

user ®

Стаж: 7 лет 7 месяцев

Сообщений: 20008

Пост Пост: #1 от 03-Ноя-2013 02:30

[Цитировать]

Проклятие Чаки / Curse of Chucky«Be afraid. Be effing afraid»- Страна: США
Жанр: ужасы, триллер
Год выпуска: 2013
Продолжительность: 01:36:41-Перевод: Профессиональный (полное дублирование) CEE
+ Оригинал English - отдельно
Cубтитры: русские (полные (2 вида), форсированные), английские - отдельно-Режиссер: Дон Манчини / Don Mancini
В ролях: Шэнтал Куэснел (Sarah), Фиона Дуриф (Nica), Джордан Джаварис (US EX Guy), Даниэль Бисутти (Barb), Эй Мартинез (Father Frank), Мейтленд МакКоннелл (Jill), Бреннан Эллиотт (Ian), Саммер Х. Хауэлл (Alice), Адам Хертинг (Officer Stanton), Даррен Уолл (Highway Cop), Уилл Войтович (Lead Fireman), Anne Leveille (Young Nica)- -Описание: В центре событий окажется молодая женщина по имени Ника тяжело переживающая самоубийство матери. Ее старшая сестра Барбара — властная, волевая женщина, — приезжает вместе с семьей к Нике, чтобы поддержать ее и уладить дела матери. Пока сестры заняты делом, малолетняя дочь Барбары находит в доме посылку пришедшую от неизвестного адресата, а в ней рыжеволосую куклу Чаки. Вскоре происходит череда кровавых убийств. Ника начинает подозревать, что в убийствах неким образом замешана кукла. По ходу дела выясняется, что у Чаки во всем этом есть особый интерес. Он решил закончить работу которую начал 20 лет назад, и в этот раз он намерен довести дело до кровавого и шокирующего финала.-Качество видео: BDRip | исх. HDCLUB / Blu-ray / 1080p | Сэмпл
Автор рипа: sociolog_melvas-Формат видео: AVI-Видео: 704x400 (1.76:1), 23.976 fps, XviD build 65 ~1756 kbps avg, 0.26 bit/pixel
Аудио 1: 48 kHz, AC3 Dolby Digital, 3/2 (L,C,R,l,r) + LFE ch, ~384 kbps avg | Профессиональный (полное дублирование) CEE
Аудио 2: 48 kHz, AC3 Dolby Digital, 3/2 (L,C,R,l,r) + LFE ch, ~384 kbps avg | Оригинал English - отдельно-Формат субтитров: softsub (srt) - отдельно-

MediaInfo


General
Complete name : D:\Фильмы\Proklyatie.Chaki.Unrated.2013.RUS.BDRip.XviD.AC3.-HQCLUB\Proklyatie.Chaki.Unrated.2013.RUS.BDRip.XviD.AC3.-HQCLUB.avi
Format : AVI
Format/Info : Audio Video Interleave
File size : 1.45 GiB
Duration : 1h 36mn
Overall bit rate : 2 149 Kbps
Movie name : Проклятие Чаки / Curse of Chucky [UNRATED] (2013) BDRip
Director : sociolog_melvas
Genre : ужасы, триллер
Writing application : VirtualDubMod 1.5.10.2 (build 2540/release)
Comment : 20.10.2013
Video
ID : 0
Format : MPEG-4 Visual
Format profile : Advanced Simple@L5
Format settings, BVOP : 1
Format settings, QPel : No
Format settings, GMC : No warppoints
Format settings, Matrix : Custom
Codec ID : XVID
Codec ID/Hint : XviD
Duration : 1h 36mn
Bit rate : 1 756 Kbps
Width : 704 pixels
Height : 400 pixels
Display aspect ratio : 16:9
Frame rate : 23.976 fps
Color space : YUV
Chroma subsampling : 4:2:0
Bit depth : 8 bits
Scan type : Progressive
Compression mode : Lossy
Bits/(Pixel*Frame) : 0.260
Stream size : 1.19 GiB (82%)
Writing library : XviD 65
Audio
ID : 1
Format : AC-3
Format/Info : Audio Coding 3
Mode extension : CM (complete main)
Format settings, Endianness : Big
Codec ID : 2000
Duration : 1h 36mn
Bit rate mode : Constant
Bit rate : 384 Kbps
Channel(s) : 6 channels
Channel positions : Front: L C R, Side: L R, LFE
Sampling rate : 48.0 KHz
Bit depth : 16 bits
Compression mode : Lossy
Stream size : 266 MiB (18%)
Alignment : Split accross interleaves
Interleave, duration : 42 ms (1.00 video frame)
Interleave, preload duration : 500 ms

Скриншоты

Скачать

Скачать торрент!

Как скачивать? · Что такое торрент? · Рейтинг и ограничения

Сайт не распространяет и не хранит электронные версии произведений, а лишь предоставляет доступ к создаваемому пользователями каталогу ссылок на торрент-файлы, которые содержат только списки хеш-сумм

[Профиль] [ЛС]
Показать сообщения:    
Ответить на тему

Текущее время: Сегодня 12:14

Часовой пояс: GMT + 4



Вы не можете начинать темы
Вы не можете отвечать на сообщения
Вы не можете редактировать свои сообщения
Вы не можете удалять свои сообщения
Вы не можете голосовать в опросах
Вы не можете прикреплять файлы к сообщениям
Вы не можете скачивать файлы