Побег из будущего / Escape from Tomorrow (Рэнди Мур / Randy Moore) [2013, США, драма, фэнтази, хоррор, DVDRip] Sub Rus + Original Eng

Ответить на тему
 
Автор Сообщение

user ®

Стаж: 7 лет 7 месяцев

Сообщений: 20008

Пост Пост: #1 от 03-Ноя-2013 02:30

[Цитировать]

Побег из будущего / Escape from Tomorrow
Страна: США
Жанр: драма, фэнтази, хоррор
Год выпуска: 2013
Продолжительность: 01:30:07
Перевод: Субтитры
Cубтитры: русские
Оригинальная аудиодорожка: английский
Режиссер: Рэнди Мур / Randy Moore
В ролях: Рой Абрамсон / Roy Abramsohn, Елена Шубер / Elena Schuber, Кэйтлин Родригес / Katelynn Rodriguez, Джек Далтон / Jack Dalton, Даниэль Сафади / Danielle Safady, Аннет Мэйндрю / Annet Mahendru, Ли Армстронг / Lee Armstrong, Эми Лукас / Amy Lucas, Джейкоб Сальвати / Jakob Salvati, Элисон Лиз-Тэйлор / Alison Lees-Taylor и другие
Описание: В фильме рассказывается история человека, который вместе с женой и детьми проводит отпуск в Дисней Уорлде, где у него начинаются галлюцинации. Ему кажется, что его хочет убить собственный сын, и тогда семейная идиллия превращается в череду пугающих событий.
Доп. информация: http://www.imdb.com/title/tt2187884/
Сэмпл: http://multi-up.com/919449
Качество видео: DVDRip
Формат видео: AVI
Видео: XviD, 720 x 386, 24.00 fps, 1926 kbps, 0.289/(Pixel*Frame)
Аудио: AC3, 48 kHz, 6 channel, 384 kbps
Формат субтитров: prerendered (IDX+SUB)

MediaInfo

General
Complete name : L:\upload\Escape\upl\Escape.From.Tomorrow.2013.avi
Format : AVI
Format/Info : Audio Video Interleave
Format profile : OpenDML
File size : 1.46 GiB
Duration : 1h 30mn
Overall bit rate : 2 321 Kbps
Writing application : Lavf55.16.102
Video
ID : 0
Format : MPEG-4 Visual
Format profile : Advanced Simple@L5
Format settings, BVOP : 5
Format settings, QPel : No
Format settings, GMC : No warppoints
Format settings, Matrix : Default (H.263)
Codec ID : XVID
Codec ID/Hint : XviD
Duration : 1h 30mn
Bit rate : 1 926 Kbps
Width : 720 pixels
Height : 386 pixels
Display aspect ratio : 1.858
Frame rate : 24.000 fps
Color space : YUV
Chroma subsampling : 4:2:0
Bit depth : 8 bits
Scan type : Progressive
Compression mode : Lossy
Bits/(Pixel*Frame) : 0.289
Stream size : 1.21 GiB (83%)
Writing library : XviD 64
Audio
ID : 1
Format : AC-3
Format/Info : Audio Coding 3
Codec ID : 00001000-0000-0020-8000-00AA00389B71
Duration : 1h 30mn
Bit rate : 384 Kbps
Channel(s) : 6 channels
Channel positions : Front: L C R, Side: L R, LFE
Sampling rate : 48.0 KHz
Bit depth : 16 bits
Compression mode : Lossy
Stream size : 248 MiB (17%)
Interleave, duration : 32 ms (0.77 video frame)
Interleave, preload duration : 32 ms

Скриншот c названием фильма

Скриншоты


Пример субтитров

448
00:37:18,837 --> 00:37:20,070
Привет!
449
00:37:20,072 --> 00:37:21,972
Папа!
- Привет.
450
00:37:21,974 --> 00:37:23,540
Привет.
- Как ты нас нашёл?
451
00:37:23,542 --> 00:37:25,008
Это Сара догадалась.
452
00:37:25,010 --> 00:37:26,876
Она увидела,
что ты забрала купальник.
453
00:37:26,878 --> 00:37:29,079
Какая умница!
454
00:37:30,147 --> 00:37:32,349
Да. Боже, ну и денёк сегодня...
455
00:37:32,351 --> 00:37:35,719
Да уж, и не говори!
Здесь настоящий дурдом.
456
00:37:35,721 --> 00:37:37,721
Я смотрю, кое-кому уже стало гораздо лучше.
457
00:37:37,723 --> 00:37:38,888
Хорошо себя чувствуешь?
- Да!
458
00:37:38,890 --> 00:37:41,858
Мы подремали, посмотрели кино.
459
00:37:41,860 --> 00:37:43,260
А вы хорошо погуляли?
460
00:37:43,262 --> 00:37:45,095
Да... было неплохо.
461
00:37:45,097 --> 00:37:47,297
Неплохо? И только?
462
00:37:48,600 --> 00:37:51,434
Ах да, я тебе кое-что купил.
Держи.
463
00:37:52,903 --> 00:37:54,170
Это же...
464
00:37:54,172 --> 00:37:55,372
Да, как раз тот, который ты хотела.
465
00:37:56,708 --> 00:37:59,209
Ты купил Дамбо?
- А что не так?
466
00:37:59,211 --> 00:38:00,610
Ты купил мне Дамбо?
467
00:38:00,612 --> 00:38:02,045
А ты разве не его хотела?
468
00:38:02,047 --> 00:38:04,447
Минни Маус! Я же тебе говорила, Джим!
Скачать

Скачать торрент!

Как скачивать? · Что такое торрент? · Рейтинг и ограничения

Сайт не распространяет и не хранит электронные версии произведений, а лишь предоставляет доступ к создаваемому пользователями каталогу ссылок на торрент-файлы, которые содержат только списки хеш-сумм

[Профиль] [ЛС]
Показать сообщения:    
Ответить на тему

Текущее время: Сегодня 02:04

Часовой пояс: GMT + 4



Вы не можете начинать темы
Вы не можете отвечать на сообщения
Вы не можете редактировать свои сообщения
Вы не можете удалять свои сообщения
Вы не можете голосовать в опросах
Вы не можете прикреплять файлы к сообщениям
Вы не можете скачивать файлы