Как щенок учился плавать (Владимир Данилевич) [1984, Кукольный мультфильм, DVDRip]

Ответить на тему
 
Автор Сообщение

user ®

Стаж: 7 лет 7 месяцев

Сообщений: 20008

Пост Пост: #1 от 02-Ноя-2013 23:20

[Цитировать]

Как щенок учился плавать
Страна: CCCР
Жанр: Кукольный мультфильм
Продолжительность: 00:06:56
Год выпуска: 1984
Русские субтитры: нет
Режиссёр: Владимир Данилевич
Роли озвучивали: О.Громова,М.Виноградова,Е.Весник,Г.Вицин
Описание: Мультипликационный фильм о «маленьком глупом щенке, который не умеет плавать и не решается войти в воду. Щука и рак учат его плавать при помощи плавников и хвоста, лебедь — с помощью перепончатых лап. Когда же щенок, наконец, поплыл, то это был его собственный индивидуальный стиль по-собачьи»
Доп. информация:
«Союзмультфильм»
Сценарий: Э.Шим
Художник-постановщик:А.Курицын
Оператор:В.Сидоров
Директор:И.Мазепа
Композитор:Е.Ботяров
Качество: DVDRip
Формат: AVI
Видео: 704x528 (1.33:1), 25 fps, XviD MPEG-4 ~2298 kbps avg, 0.25 bit/pixel
Аудио: 48 kHz, AC3 Dolby Digital, 2/0 (L,R) ch, ~192.00 kbps avg
Субтитры: нет

Подробные технические данные

Format : AVIFormat/Info : Audio Video InterleaveFile size : 124 MiBDuration : 6mn 56sOverall bit rate : 2 500 KbpsWriting application : VirtualDubModRus 1.5.10.2 (build 2542/release)Copyright : : DVDRip by dvdss
VideoID : 0Format : MPEG-4 VisualFormat profile : Advanced Simple@L5Format settings, BVOP : 2Format settings, QPel : NoFormat settings, GMC : No warppointsFormat settings, Matrix : CustomCodec ID : XVIDCodec ID/Hint : XviDDuration : 6mn 56sBit rate : 2 298 KbpsWidth : 704 pixelsHeight : 528 pixelsDisplay aspect ratio : 5:4Original display aspect ratio : 4:3Frame rate : 25.000 fpsColor space : YUVChroma subsampling : 4:2:0Bit depth : 8 bitsScan type : ProgressiveCompression mode : LossyBits/(Pixel*Frame) : 0.247Stream size : 114 MiB (92%)Writing library : XviD 65
AudioID : 1Format : AC-3Format/Info : Audio Coding 3Mode extension : CM (complete main)Format settings, Endianness : BigCodec ID : 2000Duration : 6mn 56sBit rate mode : ConstantBit rate : 192 KbpsChannel(s) : 2 channelsChannel positions : Front: L RSampling rate : 48.0 KHzBit depth : 16 bitsCompression mode : LossyStream size : 9.54 MiB (8%)Alignment : Aligned on interleavesInterleave, duration : 40 ms (1.00 video frame)Interleave, preload duration : 512 ms

Скриншоты

Скачать

Скачать торрент!

Как скачивать? · Что такое торрент? · Рейтинг и ограничения

Сайт не распространяет и не хранит электронные версии произведений, а лишь предоставляет доступ к создаваемому пользователями каталогу ссылок на торрент-файлы, которые содержат только списки хеш-сумм

[Профиль] [ЛС]
Показать сообщения:    
Ответить на тему

Текущее время: Сегодня 22:19

Часовой пояс: GMT + 4



Вы не можете начинать темы
Вы не можете отвечать на сообщения
Вы не можете редактировать свои сообщения
Вы не можете удалять свои сообщения
Вы не можете голосовать в опросах
Вы не можете прикреплять файлы к сообщениям
Вы не можете скачивать файлы